<?xml version="1.0" standalone="no"?>
<!DOCTYPE svg PUBLIC "-//W3C//DTD SVG 1.1//EN" "http://www.w3.org/Graphics/SVG/1.1/DTD/svg11.dtd" >
<svg xmlns="http://www.w3.org/2000/svg">
<metadata></metadata>
<defs>
<font id="glyphicons_filetypesregular" horiz-adv-x="2400" >
<font-face units-per-em="2400" ascent="1920" descent="-480" />
<missing-glyph horiz-adv-x="500" />
<glyph horiz-adv-x="0" />
<glyph horiz-adv-x="800" />
<glyph unicode=" " />
<glyph unicode="&#xa0;" />
<glyph unicode="&#x2000;" horiz-adv-x="1200" />
<glyph unicode="&#x2001;" />
<glyph unicode="&#x2002;" horiz-adv-x="1200" />
<glyph unicode="&#x2003;" />
<glyph unicode="&#x2004;" horiz-adv-x="800" />
<glyph unicode="&#x2005;" horiz-adv-x="600" />
<glyph unicode="&#x2006;" horiz-adv-x="400" />
<glyph unicode="&#x2007;" horiz-adv-x="400" />
<glyph unicode="&#x2008;" horiz-adv-x="300" />
<glyph unicode="&#x2009;" horiz-adv-x="480" />
<glyph unicode="&#x200a;" horiz-adv-x="133" />
<glyph unicode="&#x202f;" horiz-adv-x="480" />
<glyph unicode="&#x205f;" horiz-adv-x="600" />
<glyph unicode="&#x25fc;" horiz-adv-x="500" d="M0 0z" />
<glyph unicode="&#xe001;" d="M250 0q-21 0 -35.5 14.5t-14.5 35.5v2300q0 21 14.5 35.5t35.5 14.5h1250v-550q0 -21 14.5 -35.5t35.5 -14.5h550v-700h-1400q-41 0 -70.5 -29.5t-29.5 -70.5v-500q0 -27 13.5 -50t36.5 -36.5t50 -13.5h1400v-350q0 -21 -14.5 -35.5t-35.5 -14.5h-1800zM1650 1900 q-21 0 -35.5 14.5t-14.5 35.5v450l500 -500h-450zM500 2000h700v100h-700v-100zM500 1800h700v100h-700v-100zM500 1600h700v100h-700v-100zM500 1400h700v100h-700v-100zM900 500v400h-100v100h300v-100h-100v-400h-100zM1200 800v200h100v-200h-100zM1400 800v200h100 v-200h-100zM1700 500v400h-100v100h300v-100h-100v-400h-100zM1300 700v100h100v-100h-100zM1200 500v200h100v-200h-100zM1400 500v200h100v-200h-100z" />
<glyph unicode="&#xe002;" d="M250 0q-21 0 -35.5 14.5t-14.5 35.5v2300q0 21 14.5 35.5t35.5 14.5h1250v-550q0 -21 14.5 -35.5t35.5 -14.5h550v-700h-1400q-41 0 -70.5 -29.5t-29.5 -70.5v-500q0 -27 13.5 -50t36.5 -36.5t50 -13.5h1400v-350q0 -21 -14.5 -35.5t-35.5 -14.5h-1800zM1650 1900 q-21 0 -35.5 14.5t-14.5 35.5v450l500 -500h-450zM500 2000h700v100h-700v-100zM500 1800h700v100h-700v-100zM500 1600h700v100h-700v-100zM500 1400h700v100h-700v-100zM800 500v500h200l100 -100v-300l-100 -100h-200zM1300 500l-100 100v300l100 100h100l100 -100v-300 l-100 -100h-100zM1700 500l-100 100v300l100 100h200v-100h-200v-300h200v-100h-200zM900 600h100v300h-100v-300zM1300 600h100v300h-100v-300z" />
<glyph unicode="&#xe003;" d="M1500 1850q0 -21 14.5 -35.5t35.5 -14.5h550v-700h-1400q-41 0 -70.5 -29.5t-29.5 -70.5v-500q0 -27 13.5 -50t36.5 -36.5t50 -13.5h1400v-350q0 -21 -14.5 -35.5t-35.5 -14.5h-1800q-21 0 -35.5 14.5t-14.5 35.5v2300q0 21 14.5 35.5t35.5 14.5h1250v-550zM1650 1900 q-21 0 -35.5 14.5t-14.5 35.5v450l500 -500h-450zM1200 2000v100h-700v-100h700zM1200 1800v100h-700v-100h700zM1200 1600v100h-700v-100h700zM1200 1400v100h-700v-100h700zM1100 700h-100v200h-100v-200l100 -100h100v-100h-100v100h-100v-100h-100v500h200l100 -100 v-200zM1400 500h-100v400h-100v100h300v-100h-100v-400zM1900 900h-200v-100h200v-100h-200v-200h-100v500h300v-100z" />
<glyph unicode="&#xe004;" d="M250 0q-21 0 -35.5 14.5t-14.5 35.5v2300q0 21 14.5 35.5t35.5 14.5h1250v-550q0 -21 14.5 -35.5t35.5 -14.5h550v-700h-1400q-41 0 -70.5 -29.5t-29.5 -70.5v-500q0 -27 13.5 -50t36.5 -36.5t50 -13.5h1400v-350q0 -21 -14.5 -35.5t-35.5 -14.5h-1800zM1650 1900 q-21 0 -35.5 14.5t-14.5 35.5v450l500 -500h-450zM500 2000h700v100h-700v-100zM500 1800h700v100h-700v-100zM500 1600h700v100h-700v-100zM500 1400h700v100h-700v-100zM800 500v500h100v-400h200v-100h-300zM1200 500v500h300v-500h-300zM1600 500v500h300v-100h-200 v-300h100v200h100v-300h-300zM1300 600h100v300h-100v-300z" />
<glyph unicode="&#xe005;" d="M250 0q-21 0 -35.5 14.5t-14.5 35.5v2300q0 21 14.5 35.5t35.5 14.5h1250v-550q0 -21 14.5 -35.5t35.5 -14.5h550v-700h-1400q-41 0 -70.5 -29.5t-29.5 -70.5v-500q0 -27 13.5 -50t36.5 -36.5t50 -13.5h1400v-350q0 -21 -14.5 -35.5t-35.5 -14.5h-1800zM1650 1900 q-21 0 -35.5 14.5t-14.5 35.5v450l500 -500h-450zM500 2000h700v100h-700v-100zM500 1800h700v100h-700v-100zM500 1600h700v100h-700v-100zM500 1400h700v100h-700v-100zM900 500v400h-100v100h300v-100h-100v-400h-100zM1300 500l-100 100v300l100 100h200v-100h-200v-100 h200v-100h-200v-100h200v-100h-200zM1600 800v200h100v-200h-100zM1800 800v200h100v-200h-100zM1700 700v100h100v-100h-100zM1600 500v200h100v-200h-100zM1800 500v200h100v-200h-100z" />
<glyph unicode="&#xe006;" d="M250 0q-21 0 -35.5 14.5t-14.5 35.5v2300q0 21 14.5 35.5t35.5 14.5h1250v-550q0 -21 14.5 -35.5t35.5 -14.5h550v-700h-1400q-41 0 -70.5 -29.5t-29.5 -70.5v-500q0 -27 13.5 -50t36.5 -36.5t50 -13.5h1400v-350q0 -21 -14.5 -35.5t-35.5 -14.5h-1800zM1650 1900 q-21 0 -35.5 14.5t-14.5 35.5v450l500 -500h-450zM500 2000h700v100h-700v-100zM500 1800h700v100h-700v-100zM500 1600h700v100h-700v-100zM500 1400h700v100h-700v-100zM800 500v500h100v-100h100v100h100v-500h-100v300h-100v-300h-100zM1200 800v100l100 100h200v-100 h-200v-100h-100zM1700 500l-100 100v300l100 100h200v-100h-200v-300h100v200h100v-300h-200zM1300 700v100h100v-100h-100zM1200 500v100h200v100h100v-100l-100 -100h-200z" />
<glyph unicode="&#xe007;" d="M250 0q-21 0 -35.5 14.5t-14.5 35.5v2300q0 21 14.5 35.5t35.5 14.5h1250v-550q0 -21 14.5 -35.5t35.5 -14.5h550v-700h-1400q-41 0 -70.5 -29.5t-29.5 -70.5v-500q0 -41 29.5 -70.5t70.5 -29.5h1400v-350q0 -21 -14.5 -35.5t-35.5 -14.5h-1800zM1650 1900 q-21 0 -35.5 14.5t-14.5 35.5v450l500 -500h-450zM500 2000h700v100h-700v-100zM500 1800h700v100h-700v-100zM500 1600h700v100h-700v-100zM500 1400h700v100h-700v-100zM900 500v400h-100v100h300v-100h-100v-400h-100zM1300 500l-100 100v300l100 100h200v-100h-200v-100 h200v-100h-200v-100h200v-100h-200zM1600 800v200h100v-200h-100zM1800 800v200h100v-200h-100zM2100 500v400h-100v100h300v-100h-100v-400h-100zM1700 700v100h100v-100h-100zM1600 500v200h100v-200h-100zM1800 500v200h100v-200h-100z" />
<glyph unicode="&#xe008;" d="M250 0q-21 0 -35.5 14.5t-14.5 35.5v2300q0 21 14.5 35.5t35.5 14.5h1250v-550q0 -21 14.5 -35.5t35.5 -14.5h550v-700h-1400q-41 0 -70.5 -29.5t-29.5 -70.5v-500q0 -41 29.5 -70.5t70.5 -29.5h1400v-350q0 -21 -14.5 -35.5t-35.5 -14.5h-1800zM1650 1900 q-21 0 -35.5 14.5t-14.5 35.5v450l500 -500h-450zM500 2000h700v100h-700v-100zM500 1800h700v100h-700v-100zM500 1600h700v100h-700v-100zM500 1400h700v100h-700v-100zM800 500v500h100v-300h100v300h100v-500h-100v100h-100v-100h-100zM1200 500v500h200l100 -100v-200 l-100 -100h-100v-100h-100zM1600 500v500h200l100 -100v-300l-100 -100h-200zM1300 700h100v200h-100v-200zM1700 600h100v300h-100v-300z" />
<glyph unicode="&#xe009;" d="M250 0q-21 0 -35.5 14.5t-14.5 35.5v2300q0 21 14.5 35.5t35.5 14.5h1250v-550q0 -21 14.5 -35.5t35.5 -14.5h550v-700h-1400q-41 0 -70.5 -29.5t-29.5 -70.5v-500q0 -41 29.5 -70.5t70.5 -29.5h1400v-350q0 -21 -14.5 -35.5t-35.5 -14.5h-1800zM1650 1900 q-21 0 -35.5 14.5t-14.5 35.5v450l500 -500h-450zM500 2000h700v100h-700v-100zM500 1800h700v100h-700v-100zM500 1600h700v100h-700v-100zM500 1400h700v100h-700v-100zM800 500v500h100v-300h100v300h100v-500h-100v100h-100v-100h-100zM1200 500v500h200l100 -100v-200 l-100 -100h-100v-100h-100zM1600 800v100l100 100h200v-100h-200v-100h-100zM1300 700h100v200h-100v-200zM1700 700v100h100v-100h-100zM1600 500v100h200v100h100v-100l-100 -100h-200z" />
<glyph unicode="&#xe010;" d="M250 0q-21 0 -35.5 14.5t-14.5 35.5v2300q0 21 14.5 35.5t35.5 14.5h1250v-550q0 -21 14.5 -35.5t35.5 -14.5h550v-700h-1400q-41 0 -70.5 -29.5t-29.5 -70.5v-500q0 -41 29.5 -70.5t70.5 -29.5h1400v-350q0 -21 -14.5 -35.5t-35.5 -14.5h-1800zM1650 1900 q-21 0 -35.5 14.5t-14.5 35.5v450l500 -500h-450zM500 2000h700v100h-700v-100zM500 1800h700v100h-700v-100zM500 1600h700v100h-700v-100zM500 1400h700v100h-700v-100zM800 500v500h200l100 -100v-300l-100 -100h-200zM1300 500l-100 100v300l100 100h100l100 -100v-300 l-100 -100h-100zM1700 500l-100 100v300l100 100h200v-100h-200v-300h200v-100h-200zM2000 800v200h100v-200h-100zM2200 800v200h100v-200h-100zM900 600h100v300h-100v-300zM1300 600h100v300h-100v-300zM2100 700v100h100v-100h-100zM2000 500v200h100v-200h-100z M2200 500v200h100v-200h-100z" />
<glyph unicode="&#xe011;" d="M250 0q-21 0 -35.5 14.5t-14.5 35.5v2300q0 21 14.5 35.5t35.5 14.5h1250v-550q0 -21 14.5 -35.5t35.5 -14.5h550v-700h-1400q-41 0 -70.5 -29.5t-29.5 -70.5v-500q0 -41 29.5 -70.5t70.5 -29.5h1400v-350q0 -21 -14.5 -35.5t-35.5 -14.5h-1800zM1650 1900 q-21 0 -35.5 14.5t-14.5 35.5v450l500 -500h-450zM500 2000h700v100h-700v-100zM500 1800h700v100h-700v-100zM500 1600h700v100h-700v-100zM500 1400h700v100h-700v-100zM800 500v500h200l100 -100v-200l-100 -100h-100v-100h-100zM1200 500v400l100 100h100l100 -100v-400 h-100v100h-100v-100h-100zM1600 500v500h300v-100h-200v-300h100v200h100v-300h-300zM2100 500l-100 100v300l100 100h200v-100h-200v-100h200v-100h-200v-100h200v-100h-200zM900 700h100v200h-100v-200zM1300 700h100v200h-100v-200z" />
<glyph unicode="&#xe012;" d="M250 0q-21 0 -35.5 14.5t-14.5 35.5v2300q0 21 14.5 35.5t35.5 14.5h1250v-550q0 -21 14.5 -35.5t35.5 -14.5h550v-700h-1400q-41 0 -70.5 -29.5t-29.5 -70.5v-500q0 -41 29.5 -70.5t70.5 -29.5h1400v-350q0 -21 -14.5 -35.5t-35.5 -14.5h-1800zM1650 1900 q-21 0 -35.5 14.5t-14.5 35.5v450l500 -500h-450zM500 2000h300v100h-300v-100zM900 2000h300v100h-300v-100zM500 1800h300v100h-300v-100zM900 1800h300v100h-300v-100zM500 1600h300v100h-300v-100zM900 1600h300v100h-300v-100zM900 500l-100 100v300l100 100h200v-100 h-200v-300h200v-100h-200zM1200 800v100l100 100h200v-100h-200v-100h-100zM1600 500v500h100v-400h100v-100h-200zM1800 600v400h100v-400h-100zM1300 700v100h100v-100h-100zM1200 500v100h200v100h100v-100l-100 -100h-200z" />
<glyph unicode="&#xe013;" d="M250 0q-21 0 -35.5 14.5t-14.5 35.5v2300q0 21 14.5 35.5t35.5 14.5h1250v-550q0 -21 14.5 -35.5t35.5 -14.5h550v-700h-1400q-41 0 -70.5 -29.5t-29.5 -70.5v-500q0 -41 29.5 -70.5t70.5 -29.5h1400v-350q0 -21 -14.5 -35.5t-35.5 -14.5h-1800zM1650 1900 q-21 0 -35.5 14.5t-14.5 35.5v450l500 -500h-450zM500 2000h300v100h-300v-100zM900 2000h300v100h-300v-100zM500 1800h300v100h-300v-100zM900 1800h300v100h-300v-100zM500 1600h300v100h-300v-100zM900 1600h300v100h-300v-100zM800 500v500h200l100 -100v-300 l-100 -100h-200zM1200 500v400l100 100h100l100 -100v-400h-100v100h-100v-100h-100zM1700 500v400h-100v100h300v-100h-100v-400h-100zM900 600h100v300h-100v-300zM1300 700h100v200h-100v-200z" />
<glyph unicode="&#xe014;" d="M250 0q-21 0 -35.5 14.5t-14.5 35.5v2300q0 21 14.5 35.5t35.5 14.5h1250v-550q0 -21 14.5 -35.5t35.5 -14.5h550v-700h-1400q-41 0 -70.5 -29.5t-29.5 -70.5v-500q0 -41 29.5 -70.5t70.5 -29.5h1400v-350q0 -21 -14.5 -35.5t-35.5 -14.5h-1800zM1650 1900 q-21 0 -35.5 14.5t-14.5 35.5v450l500 -500h-450zM500 2000h300v100h-300v-100zM900 2000h300v100h-300v-100zM500 1800h300v100h-300v-100zM900 1800h300v100h-300v-100zM500 1600h300v100h-300v-100zM900 1600h300v100h-300v-100zM900 500v400h-100v100h300v-100h-100 v-400h-100zM1200 500v400l100 100h100l100 -100v-400h-100v100h-100v-100h-100zM1600 500v500h200l100 -100v-200h-100v200h-100v-200l100 -100h-100v-100h-100zM1300 700h100v200h-100v-200zM1800 500v100h100v-100h-100z" />
<glyph unicode="&#xe015;" d="M250 0q-21 0 -35.5 14.5t-14.5 35.5v2300q0 21 14.5 35.5t35.5 14.5h1250v-550q0 -21 14.5 -35.5t35.5 -14.5h550v-700h-1400q-41 0 -70.5 -29.5t-29.5 -70.5v-500q0 -41 29.5 -70.5t70.5 -29.5h1400v-350q0 -21 -14.5 -35.5t-35.5 -14.5h-1800zM1650 1900 q-21 0 -35.5 14.5t-14.5 35.5v450l500 -500h-450zM500 2000h300v100h-300v-100zM900 2000h300v100h-300v-100zM500 1800h300v100h-300v-100zM900 1800h300v100h-300v-100zM500 1600h300v100h-300v-100zM900 1600h300v100h-300v-100zM800 800v200h100v-200h-100zM1000 800 v200h100v-200h-100zM1200 500v500h100v-100h100v100h100v-500h-100v300h-100v-300h-100zM1700 500l-100 100v400h100v-400h200v-100h-200zM900 700v100h100v-100h-100zM800 500v200h100v-200h-100zM1000 500v200h100v-200h-100z" />
<glyph unicode="&#xe016;" d="M250 0q-21 0 -35.5 14.5t-14.5 35.5v2300q0 21 14.5 35.5t35.5 14.5h1250v-550q0 -21 14.5 -35.5t35.5 -14.5h550v-700h-1400q-41 0 -70.5 -29.5t-29.5 -70.5v-500q0 -41 29.5 -70.5t70.5 -29.5h1400v-350q0 -21 -14.5 -35.5t-35.5 -14.5h-1800zM1650 1900 q-21 0 -35.5 14.5t-14.5 35.5v450l500 -500h-450zM500 2000h300v100h-300v-100zM900 2000h300v100h-300v-100zM500 1800h300v100h-300v-100zM900 1800h300v100h-300v-100zM500 1600h300v100h-300v-100zM900 1600h300v100h-300v-100zM800 500v500h100v-400h100v-100h-200z M1000 600v400h100v-400h-100zM1300 500l-100 100v300l100 100h200v-100h-200v-300h200v-100h-200zM1600 500v400l100 100h200v-100h-200v-100h200v-100h-200v-200h-100z" />
<glyph unicode="&#xe017;" d="M250 0q-21 0 -35.5 14.5t-14.5 35.5v2300q0 21 14.5 35.5t35.5 14.5h1250v-550q0 -21 14.5 -35.5t35.5 -14.5h550v-700h-1400q-41 0 -70.5 -29.5t-29.5 -70.5v-500q0 -41 29.5 -70.5t70.5 -29.5h1400v-350q0 -21 -14.5 -35.5t-35.5 -14.5h-1800zM1650 1900 q-21 0 -35.5 14.5t-14.5 35.5v450l500 -500h-450zM500 2000h300v100h-300v-100zM900 2000h300v100h-300v-100zM500 1800h300v100h-300v-100zM900 1800h300v100h-300v-100zM500 1600h300v100h-300v-100zM900 1600h300v100h-300v-100zM800 500v500h200l100 -100v-200 l-100 -100h-100v-100h-100zM1200 500v500h200l100 -100v-200l-100 -100h-100v-100h-100zM1600 800v100l100 100h200v-100h-200v-100h-100zM900 700h100v200h-100v-200zM1300 700h100v200h-100v-200zM1700 700v100h100v-100h-100zM1600 500v100h200v100h100v-100l-100 -100 h-200z" />
<glyph unicode="&#xe018;" d="M250 0q-21 0 -35.5 14.5t-14.5 35.5v2300q0 21 14.5 35.5t35.5 14.5h1250v-550q0 -21 14.5 -35.5t35.5 -14.5h550v-700h-1400q-41 0 -70.5 -29.5t-29.5 -70.5v-500q0 -41 29.5 -70.5t70.5 -29.5h1400v-350q0 -21 -14.5 -35.5t-35.5 -14.5h-1800zM1650 1900 q-21 0 -35.5 14.5t-14.5 35.5v450l500 -500h-450zM500 2000h300v100h-300v-100zM900 2000h300v100h-300v-100zM500 1800h300v100h-300v-100zM900 1800h300v100h-300v-100zM500 1600h300v100h-300v-100zM900 1600h300v100h-300v-100zM800 500v500h100v-200h100v-100h-100 v-200h-100zM1000 800v200h100v-200h-100zM1300 500l-100 100v300l100 100h200v-100h-200v-100h200v-100h-200v-100h200v-100h-200zM1700 500v200l-100 100v200h100v-200h100v200h100v-200l-100 -100v-200h-100zM1000 500v200h100v-200h-100z" />
<glyph unicode="&#xe019;" d="M250 0q-21 0 -35.5 14.5t-14.5 35.5v2300q0 21 14.5 35.5t35.5 14.5h1250v-550q0 -21 14.5 -35.5t35.5 -14.5h550v-700h-1400q-41 0 -70.5 -29.5t-29.5 -70.5v-500q0 -41 29.5 -70.5t70.5 -29.5h1400v-350q0 -21 -14.5 -35.5t-35.5 -14.5h-1800zM1650 1900 q-21 0 -35.5 14.5t-14.5 35.5v450l500 -500h-450zM500 2000h300v100h-300v-100zM900 2000h300v100h-300v-100zM500 1800h300v100h-300v-100zM900 1800h300v100h-300v-100zM500 1600h300v100h-300v-100zM900 1600h300v100h-300v-100zM800 500v500h200l100 -100v-200 l-100 -100h-100v-100h-100zM1200 500v500h200l100 -100v-200l-100 -100h-100v-100h-100zM1700 500v400h-100v100h300v-100h-100v-400h-100zM900 700h100v200h-100v-200zM1300 700h100v200h-100v-200z" />
<glyph unicode="&#xe020;" d="M250 0q-21 0 -35.5 14.5t-14.5 35.5v2300q0 21 14.5 35.5t35.5 14.5h1250v-550q0 -21 14.5 -35.5t35.5 -14.5h550v-700h-1400q-41 0 -70.5 -29.5t-29.5 -70.5v-500q0 -41 29.5 -70.5t70.5 -29.5h1400v-350q0 -21 -14.5 -35.5t-35.5 -14.5h-1800zM1650 1900 q-21 0 -35.5 14.5t-14.5 35.5v450l500 -500h-450zM500 2000h300v100h-300v-100zM900 2000h300v100h-300v-100zM500 1800h300v100h-300v-100zM900 1800h300v100h-300v-100zM500 1600h300v100h-300v-100zM900 1600h300v100h-300v-100zM800 500v500h200l100 -100v-200 l-100 -100h-100v-100h-100zM1200 500v500h200l100 -100v-200l-100 -100h-100v-100h-100zM1700 500v400h-100v100h300v-100h-100v-400h-100zM2000 800v200h100v-200h-100zM2200 800v200h100v-200h-100zM900 700h100v200h-100v-200zM1300 700h100v200h-100v-200zM2100 700v100 h100v-100h-100zM2000 500v200h100v-200h-100zM2200 500v200h100v-200h-100z" />
<glyph unicode="&#xe021;" d="M250 0q-21 0 -35.5 14.5t-14.5 35.5v2300q0 21 14.5 35.5t35.5 14.5h1250v-550q0 -21 14.5 -35.5t35.5 -14.5h550v-700h-1400q-41 0 -70.5 -29.5t-29.5 -70.5v-500q0 -41 29.5 -70.5t70.5 -29.5h1400v-350q0 -21 -14.5 -35.5t-35.5 -14.5h-1800zM1650 1900 q-21 0 -35.5 14.5t-14.5 35.5v450l500 -500h-450zM500 2000h300v100h-300v-100zM900 2000h300v100h-300v-100zM500 1800h300v100h-300v-100zM900 1800h300v100h-300v-100zM500 1600h300v100h-300v-100zM900 1600h300v100h-300v-100zM800 800v100l100 100h200v-100h-200v-100 h-100zM1200 500v500h200l100 -100v-300l-100 -100h-200zM1600 500v400l100 100h200v-100h-200v-100h200v-100h-200v-200h-100zM1300 600h100v300h-100v-300zM900 700v100h100v-100h-100zM800 500v100h200v100h100v-100l-100 -100h-200z" />
<glyph unicode="&#xe022;" d="M250 0q-21 0 -35.5 14.5t-14.5 35.5v2300q0 21 14.5 35.5t35.5 14.5h1250v-550q0 -21 14.5 -35.5t35.5 -14.5h550v-700h-1400q-41 0 -70.5 -29.5t-29.5 -70.5v-500q0 -41 29.5 -70.5t70.5 -29.5h1400v-350q0 -21 -14.5 -35.5t-35.5 -14.5h-1800zM1650 1900 q-21 0 -35.5 14.5t-14.5 35.5v450l500 -500h-450zM500 2000h300v100h-300v-100zM900 2000h300v100h-300v-100zM500 1800h300v100h-300v-100zM900 1800h300v100h-300v-100zM500 1600h300v100h-300v-100zM900 1600h300v100h-300v-100zM800 500v500h300v-100h-200v-300h100v200 h100v-300h-300zM1200 500v500h200l100 -100v-100l-50 -50l50 -50v-100l-100 -100h-200zM1600 500v500h200l100 -100v-200h-100v200h-100v-200l100 -100h-100v-100h-100zM1300 800h100v100h-100v-100zM1300 600h100v100h-100v-100zM1800 500v100h100v-100h-100z" />
<glyph unicode="&#xe023;" d="M250 0q-21 0 -35.5 14.5t-14.5 35.5v2300q0 21 14.5 35.5t35.5 14.5h1250v-550q0 -21 14.5 -35.5t35.5 -14.5h550v-700h-1400q-41 0 -70.5 -29.5t-29.5 -70.5v-500q0 -41 29.5 -70.5t70.5 -29.5h1400v-350q0 -21 -14.5 -35.5t-35.5 -14.5h-1800zM1650 1900 q-21 0 -35.5 14.5t-14.5 35.5v450l500 -500h-450zM500 2000h300v100h-300v-100zM900 2000h300v100h-300v-100zM500 1800h300v100h-300v-100zM900 1800h300v100h-300v-100zM500 1600h300v100h-300v-100zM900 1600h300v100h-300v-100zM800 500v500h300v-100h-200v-300h100v200 h100v-300h-300zM1300 500l-100 100v300l100 100h200v-100h-200v-100h200v-100h-200v-100h200v-100h-200zM1600 500v500h200l100 -100v-300l-100 -100h-200zM1700 600h100v300h-100v-300z" />
<glyph unicode="&#xe024;" d="M250 0q-21 0 -35.5 14.5t-14.5 35.5v2300q0 21 14.5 35.5t35.5 14.5h1250v-550q0 -21 14.5 -35.5t35.5 -14.5h550v-700h-1400q-41 0 -70.5 -29.5t-29.5 -70.5v-500q0 -41 29.5 -70.5t70.5 -29.5h1400v-350q0 -21 -14.5 -35.5t-35.5 -14.5h-1800zM1650 1900 q-21 0 -35.5 14.5t-14.5 35.5v450l500 -500h-450zM1100 1400v700l-350 -200h-250v-300h250zM800 500v500h100v-100h100v100h100v-500h-100v300h-100v-300h-100zM1200 500v500h200l100 -100v-200l-100 -100h-100v-100h-100zM1600 500v100h200v100h-200v100h200v100h-200v100 h300v-500h-300zM1300 700h100v200h-100v-200z" />
<glyph unicode="&#xe025;" d="M250 0q-21 0 -35.5 14.5t-14.5 35.5v2300q0 21 14.5 35.5t35.5 14.5h1250v-550q0 -21 14.5 -35.5t35.5 -14.5h550v-700h-1400q-41 0 -70.5 -29.5t-29.5 -70.5v-500q0 -41 29.5 -70.5t70.5 -29.5h1400v-350q0 -21 -14.5 -35.5t-35.5 -14.5h-1800zM1650 1900 q-21 0 -35.5 14.5t-14.5 35.5v450l500 -500h-450zM1100 1400v700l-350 -200h-250v-300h250zM800 500v500h100v-100h100v100h100v-500h-100v300h-100v-300h-100zM1400 500v100h-200v400h100v-300h100v300h100v-500h-100zM1600 500v400l100 100h100l100 -100v-400h-100v100 h-100v-100h-100zM1700 700h100v200h-100v-200z" />
<glyph unicode="&#xe026;" d="M250 0q-21 0 -35.5 14.5t-14.5 35.5v2300q0 21 14.5 35.5t35.5 14.5h1250v-550q0 -21 14.5 -35.5t35.5 -14.5h550v-700h-1400q-41 0 -70.5 -29.5t-29.5 -70.5v-500q0 -41 29.5 -70.5t70.5 -29.5h1400v-350q0 -21 -14.5 -35.5t-35.5 -14.5h-1800zM1650 1900 q-21 0 -35.5 14.5t-14.5 35.5v450l500 -500h-450zM1100 1400v700l-350 -200h-250v-300h250zM800 500v500h100v-300h100v300h100v-500h-100v100h-100v-100h-100zM1200 500v400l100 100h100l100 -100v-400h-100v100h-100v-100h-100zM1600 500v500h100v-300h100v300h100v-500 h-100v100h-100v-100h-100zM1300 700h100v200h-100v-200z" />
<glyph unicode="&#xe027;" d="M250 0q-21 0 -35.5 14.5t-14.5 35.5v2300q0 21 14.5 35.5t35.5 14.5h1250v-550q0 -21 14.5 -35.5t35.5 -14.5h550v-700h-1400q-41 0 -70.5 -29.5t-29.5 -70.5v-500q0 -41 29.5 -70.5t70.5 -29.5h1400v-350q0 -21 -14.5 -35.5t-35.5 -14.5h-1800zM1650 1900 q-21 0 -35.5 14.5t-14.5 35.5v450l500 -500h-450zM1100 1400v700l-350 -200h-250v-300h250zM800 500v500h100v-300h100v300h100v-500h-100v100h-100v-100h-100zM1200 500v500h100v-100h100v100h100v-500h-100v300h-100v-300h-100zM1600 500v400l100 100h100l100 -100v-400 h-100v100h-100v-100h-100zM1700 700h100v200h-100v-200z" />
<glyph unicode="&#xe028;" d="M250 0q-21 0 -35.5 14.5t-14.5 35.5v2300q0 21 14.5 35.5t35.5 14.5h1250v-550q0 -21 14.5 -35.5t35.5 -14.5h550v-700h-1400q-41 0 -70.5 -29.5t-29.5 -70.5v-500q0 -41 29.5 -70.5t70.5 -29.5h1400v-350q0 -21 -14.5 -35.5t-35.5 -14.5h-1800zM1650 1900 q-21 0 -35.5 14.5t-14.5 35.5v450l500 -500h-450zM1100 1400v700l-350 -200h-250v-300h250zM800 500v500h100v-100h100v100h100v-500h-100v300h-100v-300h-100zM1200 500v500h200l100 -100v-200l-100 -100h-100v-100h-100zM1600 500v400l100 100h100l100 -100v-400h-100v100 h-100v-100h-100zM1300 700h100v200h-100v-200zM1700 700h100v200h-100v-200z" />
<glyph unicode="&#xe029;" d="M250 0q-21 0 -35.5 14.5t-14.5 35.5v2300q0 21 14.5 35.5t35.5 14.5h1250v-550q0 -21 14.5 -35.5t35.5 -14.5h550v-700h-1400q-41 0 -70.5 -29.5t-29.5 -70.5v-500q0 -41 29.5 -70.5t70.5 -29.5h1400v-350q0 -21 -14.5 -35.5t-35.5 -14.5h-1800zM1650 1900 q-21 0 -35.5 14.5t-14.5 35.5v450l500 -500h-450zM1100 1400v700l-350 -200h-250v-300h250zM800 500v500h100v-500h-100zM1000 500v400l100 100h200v-100h-200v-100h200v-100h-200v-200h-100zM1400 500v400l100 100h200v-100h-200v-100h200v-100h-200v-200h-100z" />
<glyph unicode="&#xe030;" d="M250 0q-21 0 -35.5 14.5t-14.5 35.5v2300q0 21 14.5 35.5t35.5 14.5h1250v-550q0 -21 14.5 -35.5t35.5 -14.5h550v-700h-1400q-41 0 -70.5 -29.5t-29.5 -70.5v-500q0 -41 29.5 -70.5t70.5 -29.5h1400v-350q0 -21 -14.5 -35.5t-35.5 -14.5h-1800zM1650 1900 q-21 0 -35.5 14.5t-14.5 35.5v450l500 -500h-450zM1100 1400v700l-350 -200h-250v-300h250zM800 500v400l100 100h100l100 -100v-400h-100v100h-100v-100h-100zM1200 500v500h100v-500h-100zM1400 500v400l100 100h200v-100h-200v-100h200v-100h-200v-200h-100zM900 700h100 v200h-100v-200z" />
<glyph unicode="&#xe031;" d="M250 0q-21 0 -35.5 14.5t-14.5 35.5v2300q0 21 14.5 35.5t35.5 14.5h1250v-550q0 -21 14.5 -35.5t35.5 -14.5h550v-700h-1400q-41 0 -70.5 -29.5t-29.5 -70.5v-500q0 -41 29.5 -70.5t70.5 -29.5h1400v-350q0 -21 -14.5 -35.5t-35.5 -14.5h-1800zM1650 1900 q-21 0 -35.5 14.5t-14.5 35.5v450l500 -500h-450zM1100 1400v700l-350 -200h-250v-300h250zM800 500v500h200l100 -100v-200h-100v200h-100v-200l100 -100h-100v-100h-100zM1200 500v400l100 100h100l100 -100v-400h-100v100h-100v-100h-100zM1300 700h100v200h-100v-200z M1000 500v100h100v-100h-100z" />
<glyph unicode="&#xe032;" d="M250 0q-21 0 -35.5 14.5t-14.5 35.5v2300q0 21 14.5 35.5t35.5 14.5h1250v-550q0 -21 14.5 -35.5t35.5 -14.5h550v-700h-1400q-41 0 -70.5 -29.5t-29.5 -70.5v-500q0 -41 29.5 -70.5t70.5 -29.5h1400v-350q0 -21 -14.5 -35.5t-35.5 -14.5h-1800zM1650 1900 q-21 0 -35.5 14.5t-14.5 35.5v450l500 -500h-450zM1100 1400v700l-350 -200h-250v-300h250zM800 500v500h100v-100h100v100h100v-500h-100v300h-100v-300h-100zM1200 500v500h100v-500h-100zM1400 500v500h200l100 -100v-300l-100 -100h-200zM1500 600h100v300h-100v-300z " />
<glyph unicode="&#xe033;" d="M250 0q-21 0 -35.5 14.5t-14.5 35.5v2300q0 21 14.5 35.5t35.5 14.5h1250v-550q0 -21 14.5 -35.5t35.5 -14.5h550v-700h-1400q-41 0 -70.5 -29.5t-29.5 -70.5v-500q0 -41 29.5 -70.5t70.5 -29.5h1400v-350q0 -21 -14.5 -35.5t-35.5 -14.5h-1800zM1650 1900 q-21 0 -35.5 14.5t-14.5 35.5v450l500 -500h-450zM1100 1400v700l-350 -200h-250v-300h250zM800 500v500h100v-100h100v100h100v-500h-100v300h-100v-300h-100zM1200 500v100h200v100h-200v100h200v100h-200v100h300v-500h-300zM1700 500l-100 100v400h100v-400h100v400h100 v-400l-100 -100h-100z" />
<glyph unicode="&#xe034;" d="M250 0q-21 0 -35.5 14.5t-14.5 35.5v2300q0 21 14.5 35.5t35.5 14.5h1250v-550q0 -21 14.5 -35.5t35.5 -14.5h550v-700h-1400q-41 0 -70.5 -29.5t-29.5 -70.5v-500q0 -41 29.5 -70.5t70.5 -29.5h1400v-350q0 -21 -14.5 -35.5t-35.5 -14.5h-1800zM1650 1900 q-21 0 -35.5 14.5t-14.5 35.5v450l500 -500h-450zM500 1444l500 306l-500 306v-612zM800 500v100h200v100h-200v100h200v100h-200v100h300v-500h-300zM1200 500v500h300v-100h-200v-300h100v200h100v-300h-300zM1600 500v500h200l100 -100v-200l-100 -100h-100v-100h-100z M1700 700h100v200h-100v-200z" />
<glyph unicode="&#xe035;" d="M250 0q-21 0 -35.5 14.5t-14.5 35.5v2300q0 21 14.5 35.5t35.5 14.5h1250v-550q0 -21 14.5 -35.5t35.5 -14.5h550v-700h-1400q-41 0 -70.5 -29.5t-29.5 -70.5v-500q0 -41 29.5 -70.5t70.5 -29.5h1400v-350q0 -21 -14.5 -35.5t-35.5 -14.5h-1800zM1650 1900 q-21 0 -35.5 14.5t-14.5 35.5v450l500 -500h-450zM500 1444l500 306l-500 306v-612zM800 800v100l100 100h200v-100h-200v-100h-100zM1200 500v500h100v-300h100v300h100v-500h-100v100h-100v-100h-100zM1600 500v400l100 100h200v-100h-200v-100h200v-100h-200v-200h-100z M900 700v100h100v-100h-100zM800 500v100h200v100h100v-100l-100 -100h-200z" />
<glyph unicode="&#xe036;" d="M250 0q-21 0 -35.5 14.5t-14.5 35.5v2300q0 21 14.5 35.5t35.5 14.5h1250v-550q0 -21 14.5 -35.5t35.5 -14.5h550v-700h-1400q-41 0 -70.5 -29.5t-29.5 -70.5v-500q0 -41 29.5 -70.5t70.5 -29.5h1400v-350q0 -21 -14.5 -35.5t-35.5 -14.5h-1800zM1650 1900 q-21 0 -35.5 14.5t-14.5 35.5v450l500 -500h-450zM500 1444l500 306l-500 306v-612zM800 500v400l100 100h100l100 -100v-400h-100v100h-100v-100h-100zM1200 500v500h100v-400h100v-100h-200zM1400 600v400h100v-400h-100zM1600 500v500h100v-500h-100zM900 700h100v200 h-100v-200z" />
<glyph unicode="&#xe037;" d="M250 0q-21 0 -35.5 14.5t-14.5 35.5v2300q0 21 14.5 35.5t35.5 14.5h1250v-550q0 -21 14.5 -35.5t35.5 -14.5h550v-700h-1400q-41 0 -70.5 -29.5t-29.5 -70.5v-500q0 -41 29.5 -70.5t70.5 -29.5h1400v-350q0 -21 -14.5 -35.5t-35.5 -14.5h-1800zM1650 1900 q-21 0 -35.5 14.5t-14.5 35.5v450l500 -500h-450zM500 1444l500 306l-500 306v-612zM800 500v400l100 100h100l100 -100v-400h-100v100h-100v-100h-100zM1200 800v100l100 100h200v-100h-200v-100h-100zM1600 800v200h100v-200h-100zM1800 800v200h100v-200h-100zM900 700 h100v200h-100v-200zM1300 700v100h100v-100h-100zM1700 700v100h100v-100h-100zM1200 500v100h200v100h100v-100l-100 -100h-200zM1600 500v200h100v-200h-100zM1800 500v200h100v-200h-100z" />
<glyph unicode="&#xe038;" d="M250 0q-21 0 -35.5 14.5t-14.5 35.5v2300q0 21 14.5 35.5t35.5 14.5h1250v-550q0 -21 14.5 -35.5t35.5 -14.5h550v-700h-1400q-41 0 -70.5 -29.5t-29.5 -70.5v-500q0 -41 29.5 -70.5t70.5 -29.5h1400v-350q0 -21 -14.5 -35.5t-35.5 -14.5h-1800zM1650 1900 q-21 0 -35.5 14.5t-14.5 35.5v450l500 -500h-450zM500 1444l500 306l-500 306v-612zM800 500v500h100v-100h100v100h100v-500h-100v300h-100v-300h-100zM1200 500v500h200l100 -100v-200l-100 -100h-100v-100h-100zM1800 500v100h-200v400h100v-300h100v300h100v-500h-100z M1300 700h100v200h-100v-200z" />
<glyph unicode="&#xe039;" d="M250 0q-21 0 -35.5 14.5t-14.5 35.5v2300q0 21 14.5 35.5t35.5 14.5h1250v-550q0 -21 14.5 -35.5t35.5 -14.5h550v-700h-1400q-41 0 -70.5 -29.5t-29.5 -70.5v-500q0 -41 29.5 -70.5t70.5 -29.5h1400v-350q0 -21 -14.5 -35.5t-35.5 -14.5h-1800zM1650 1900 q-21 0 -35.5 14.5t-14.5 35.5v450l500 -500h-450zM500 1444l500 306l-500 306v-612zM800 500v100h200v100h-200v100h200v100h-200v100h300v-500h-300zM1200 500v500h300v-100h-200v-300h100v200h100v-300h-300zM1600 500v300h200v100h-200v100h300v-300h-200v-100h200v-100 h-300z" />
<glyph unicode="&#xe040;" d="M250 0q-21 0 -35.5 14.5t-14.5 35.5v2300q0 21 14.5 35.5t35.5 14.5h1250v-550q0 -21 14.5 -35.5t35.5 -14.5h550v-700h-1400q-41 0 -70.5 -29.5t-29.5 -70.5v-500q0 -41 29.5 -70.5t70.5 -29.5h1400v-350q0 -21 -14.5 -35.5t-35.5 -14.5h-1800zM1650 1900 q-21 0 -35.5 14.5t-14.5 35.5v450l500 -500h-450zM500 1444l500 306l-500 306v-612zM800 500v500h100v-100h100v100h100v-500h-100v300h-100v-300h-100zM1200 500v500h200l100 -100v-200l-100 -100h-100v-100h-100zM1600 500v500h300v-100h-200v-300h100v200h100v-300h-300z M1300 700h100v200h-100v-200z" />
<glyph unicode="&#xe041;" d="M250 0q-21 0 -35.5 14.5t-14.5 35.5v2300q0 21 14.5 35.5t35.5 14.5h1250v-550q0 -21 14.5 -35.5t35.5 -14.5h550v-700h-1400q-41 0 -70.5 -29.5t-29.5 -70.5v-500q0 -41 29.5 -70.5t70.5 -29.5h1400v-350q0 -21 -14.5 -35.5t-35.5 -14.5h-1800zM1650 1900 q-21 0 -35.5 14.5t-14.5 35.5v450l500 -500h-450zM500 1444l500 306l-500 306v-612zM800 500v400l100 100h100l100 -100v-400h-100v100h-100v-100h-100zM1200 800v100l100 100h200v-100h-200v-100h-100zM1600 500v500h300v-100h-200v-100h200v-100h-200v-200h-100zM900 700 h100v200h-100v-200zM1300 700v100h100v-100h-100zM1200 500v100h200v100h100v-100l-100 -100h-200z" />
<glyph unicode="&#xe042;" d="M250 0q-21 0 -35.5 14.5t-14.5 35.5v2300q0 21 14.5 35.5t35.5 14.5h1250v-550q0 -21 14.5 -35.5t35.5 -14.5h550v-700h-1400q-41 0 -70.5 -29.5t-29.5 -70.5v-500q0 -41 29.5 -70.5t70.5 -29.5h1400v-350q0 -21 -14.5 -35.5t-35.5 -14.5h-1800zM1650 1900 q-21 0 -35.5 14.5t-14.5 35.5v450l500 -500h-450zM500 1444l500 306l-500 306v-612zM800 500v500h100v-400h100v-100h-200zM1000 600v400h100v-400h-100zM1300 500l-100 100v300l100 100h100l100 -100v-300l-100 -100h-100zM1600 500v500h200l100 -100v-100l-50 -50l50 -50 v-100l-100 -100h-200zM1300 600h100v300h-100v-300zM1700 800h100v100h-100v-100zM1700 600h100v100h-100v-100z" />
<glyph unicode="&#xe043;" d="M250 0q-21 0 -35.5 14.5t-14.5 35.5v2300q0 21 14.5 35.5t35.5 14.5h1250v-550q0 -21 14.5 -35.5t35.5 -14.5h550v-700h-1400q-41 0 -70.5 -29.5t-29.5 -70.5v-500q0 -41 29.5 -70.5t70.5 -29.5h1400v-350q0 -21 -14.5 -35.5t-35.5 -14.5h-1800zM1650 1900 q-21 0 -35.5 14.5t-14.5 35.5v450l500 -500h-450zM500 1444l500 306l-500 306v-612zM800 500v500h100v-300h100v300h100v-500h-100v100h-100v-100h-100zM1200 500v500h100v-100h100v100h100v-500h-100v300h-100v-300h-100zM1600 500v500h100v-400h100v-100h-200zM1800 600 v400h100v-400h-100z" />
<glyph unicode="&#xe044;" d="M250 0q-21 0 -35.5 14.5t-14.5 35.5v2300q0 21 14.5 35.5t35.5 14.5h1250v-550q0 -21 14.5 -35.5t35.5 -14.5h550v-700h-1400q-41 0 -70.5 -29.5t-29.5 -70.5v-500q0 -41 29.5 -70.5t70.5 -29.5h1400v-350q0 -21 -14.5 -35.5t-35.5 -14.5h-1800zM1650 1900 q-21 0 -35.5 14.5t-14.5 35.5v450l500 -500h-450zM500 1444l500 306l-500 306v-612zM800 500v500h100v-100h100v100h100v-500h-100v300h-100v-300h-100zM1300 500l-100 100v300l100 100h100l100 -100v-300l-100 -100h-100zM1600 500v500h100v-400h100v-100h-200zM1800 600 v400h100v-400h-100zM1300 600h100v300h-100v-300z" />
<glyph unicode="&#xe045;" d="M250 0q-21 0 -35.5 14.5t-14.5 35.5v2300q0 21 14.5 35.5t35.5 14.5h1250v-550q0 -21 14.5 -35.5t35.5 -14.5h550v-700h-1400q-41 0 -70.5 -29.5t-29.5 -70.5v-500q0 -41 29.5 -70.5t70.5 -29.5h1400v-350q0 -21 -14.5 -35.5t-35.5 -14.5h-1800zM1650 1900 q-21 0 -35.5 14.5t-14.5 35.5v450l500 -500h-450zM500 1444l500 306l-500 306v-612zM800 800v100l100 100h200v-100h-200v-100h-100zM1200 500v500h200l100 -100v-200h-100v200h-100v-200l100 -100h-100v-100h-100zM1700 500v400h-100v100h300v-100h-100v-400h-100zM900 700 v100h100v-100h-100zM800 500v100h200v100h100v-100l-100 -100h-200zM1400 500v100h100v-100h-100z" />
<glyph unicode="&#xe046;" d="M250 0q-21 0 -35.5 14.5t-14.5 35.5v2300q0 21 14.5 35.5t35.5 14.5h1250v-550q0 -21 14.5 -35.5t35.5 -14.5h550v-700h-1400q-41 0 -70.5 -29.5t-29.5 -70.5v-500q0 -41 29.5 -70.5t70.5 -29.5h1400v-350q0 -21 -14.5 -35.5t-35.5 -14.5h-1800zM1650 1900 q-21 0 -35.5 14.5t-14.5 35.5v450l500 -500h-450zM500 1444l500 306l-500 306v-612zM800 500v500h100v-100h100v100h100v-500h-100v300h-100v-300h-100zM1400 500v100h-200v400h100v-300h100v300h100v-500h-100zM1600 500v500h100v-400h100v-100h-200zM1800 600v400h100 v-400h-100z" />
<glyph unicode="&#xe047;" d="M250 0q-21 0 -35.5 14.5t-14.5 35.5v2300q0 21 14.5 35.5t35.5 14.5h1250v-550q0 -21 14.5 -35.5t35.5 -14.5h550v-700h-1400q-41 0 -70.5 -29.5t-29.5 -70.5v-500q0 -41 29.5 -70.5t70.5 -29.5h1400v-350q0 -21 -14.5 -35.5t-35.5 -14.5h-1800zM1650 1900 q-21 0 -35.5 14.5t-14.5 35.5v450l500 -500h-450zM500 1444l500 306l-500 306v-612zM800 500v400l100 100h200v-100h-200v-100h200v-100h-200v-200h-100zM1300 500l-100 100v400h100v-400h200v-100h-200zM1600 500v500h100v-400h100v-100h-200zM1800 600v400h100v-400h-100z " />
<glyph unicode="&#xe048;" d="M250 0q-21 0 -35.5 14.5t-14.5 35.5v2300q0 21 14.5 35.5t35.5 14.5h1250v-550q0 -21 14.5 -35.5t35.5 -14.5h550v-700h-1400q-41 0 -70.5 -29.5t-29.5 -70.5v-500q0 -41 29.5 -70.5t70.5 -29.5h1400v-350q0 -21 -14.5 -35.5t-35.5 -14.5h-1800zM1650 1900 q-21 0 -35.5 14.5t-14.5 35.5v450l500 -500h-450zM500 1444l500 306l-500 306v-612zM800 500v500h200l100 -100v-200h-100v200h-100v-200l100 -100h-100v-100h-100zM1200 500v500h100v-100h100v100h100v-500h-100v300h-100v-300h-100zM1000 500v100h100v-100h-100z" />
<glyph unicode="&#xe049;" d="M250 0q-21 0 -35.5 14.5t-14.5 35.5v2300q0 21 14.5 35.5t35.5 14.5h1250v-550q0 -21 14.5 -35.5t35.5 -14.5h550v-700h-1400q-41 0 -70.5 -29.5t-29.5 -70.5v-500q0 -41 29.5 -70.5t70.5 -29.5h1400v-350q0 -21 -14.5 -35.5t-35.5 -14.5h-1800zM1650 1900 q-21 0 -35.5 14.5t-14.5 35.5v450l500 -500h-450zM544 1500h612q18 0 31 13t13 31v512q0 12 -6 22t-16 16t-22 6h-612q-12 0 -22 -6t-16 -16t-6 -22v-512q0 -18 13 -31t31 -13zM600 1640v360h500v-360l-142 228l-100 -166zM749 1765q35 0 59.5 24.5t24.5 59.5q0 17 -6.5 33 t-18 27t-27 17.5t-32.5 6.5q-35 0 -59.5 -24.5t-24.5 -59.5q0 -23 11 -42.5t30.5 -30.5t42.5 -11zM800 500v500h200l100 -100v-200l-100 -100h-100v-100h-100zM1200 500v500h200v-100h-100v-400h-100zM1600 500v500h300v-100h-200v-300h100v200h100v-300h-300zM900 700h100 v200h-100v-200zM1400 500v400h100v-400h-100z" />
<glyph unicode="&#xe050;" d="M250 0q-21 0 -35.5 14.5t-14.5 35.5v2300q0 21 14.5 35.5t35.5 14.5h1250v-550q0 -21 14.5 -35.5t35.5 -14.5h550v-700h-1400q-41 0 -70.5 -29.5t-29.5 -70.5v-500q0 -41 29.5 -70.5t70.5 -29.5h1400v-350q0 -21 -14.5 -35.5t-35.5 -14.5h-1800zM1650 1900 q-21 0 -35.5 14.5t-14.5 35.5v450l500 -500h-450zM544 1500h612q18 0 31 13t13 31v512q0 12 -6 22t-16 16t-22 6h-612q-12 0 -22 -6t-16 -16t-6 -22v-512q0 -18 13 -31t31 -13zM600 1640v360h500v-360l-142 228l-100 -166zM749 1765q35 0 59.5 24.5t24.5 59.5q0 17 -6.5 33 t-18 27t-27 17.5t-32.5 6.5q-35 0 -59.5 -24.5t-24.5 -59.5q0 -23 11 -42.5t30.5 -30.5t42.5 -11zM800 500v500h200l100 -100v-200l-100 -100h-100v-100h-100zM1200 800v100l100 100h200v-100h-200v-100h-100zM1600 500v500h200l100 -100v-300l-100 -100h-200zM900 700h100 v200h-100v-200zM1700 600h100v300h-100v-300zM1300 700v100h100v-100h-100zM1200 500v100h200v100h100v-100l-100 -100h-200z" />
<glyph unicode="&#xe051;" d="M250 0q-21 0 -35.5 14.5t-14.5 35.5v2300q0 21 14.5 35.5t35.5 14.5h1250v-550q0 -21 14.5 -35.5t35.5 -14.5h550v-700h-1400q-41 0 -70.5 -29.5t-29.5 -70.5v-500q0 -41 29.5 -70.5t70.5 -29.5h1400v-350q0 -21 -14.5 -35.5t-35.5 -14.5h-1800zM1650 1900 q-21 0 -35.5 14.5t-14.5 35.5v450l500 -500h-450zM544 1500h612q18 0 31 13t13 31v512q0 12 -6 22t-16 16t-22 6h-612q-12 0 -22 -6t-16 -16t-6 -22v-512q0 -18 13 -31t31 -13zM600 1640v360h500v-360l-142 228l-100 -166zM749 1765q35 0 59.5 24.5t24.5 59.5q0 17 -6.5 33 t-18 27t-27 17.5t-32.5 6.5q-35 0 -59.5 -24.5t-24.5 -59.5q0 -23 11 -42.5t30.5 -30.5t42.5 -11zM800 500v500h200l100 -100v-200l-100 -100h-100v-100h-100zM1200 800v100l100 100h200v-100h-200v-100h-100zM1600 500v500h200l100 -100v-200l-100 -100h-100v-100h-100z M900 700h100v200h-100v-200zM1700 700h100v200h-100v-200zM1300 700v100h100v-100h-100zM1200 500v100h200v100h100v-100l-100 -100h-200z" />
<glyph unicode="&#xe052;" d="M250 0q-21 0 -35.5 14.5t-14.5 35.5v2300q0 21 14.5 35.5t35.5 14.5h1250v-550q0 -21 14.5 -35.5t35.5 -14.5h550v-700h-1400q-41 0 -70.5 -29.5t-29.5 -70.5v-500q0 -41 29.5 -70.5t70.5 -29.5h1400v-350q0 -21 -14.5 -35.5t-35.5 -14.5h-1800zM1650 1900 q-21 0 -35.5 14.5t-14.5 35.5v450l500 -500h-450zM544 1500h612q18 0 31 13t13 31v512q0 12 -6 22t-16 16t-22 6h-612q-12 0 -22 -6t-16 -16t-6 -22v-512q0 -18 13 -31t31 -13zM600 1640v360h500v-360l-142 228l-100 -166zM749 1765q35 0 59.5 24.5t24.5 59.5q0 17 -6.5 33 t-18 27t-27 17.5t-32.5 6.5q-35 0 -59.5 -24.5t-24.5 -59.5q0 -23 11 -42.5t30.5 -30.5t42.5 -11zM900 500l-100 100v200h100v-200h100v400h100v-400l-100 -100h-100zM1200 500v500h200l100 -100v-200l-100 -100h-100v-100h-100zM1600 500v500h300v-100h-200v-300h100v200 h100v-300h-300zM1300 700h100v200h-100v-200z" />
<glyph unicode="&#xe053;" d="M250 0q-21 0 -35.5 14.5t-14.5 35.5v2300q0 21 14.5 35.5t35.5 14.5h1250v-550q0 -21 14.5 -35.5t35.5 -14.5h550v-700h-1400q-41 0 -70.5 -29.5t-29.5 -70.5v-500q0 -41 29.5 -70.5t70.5 -29.5h1400v-350q0 -21 -14.5 -35.5t-35.5 -14.5h-1800zM1650 1900 q-21 0 -35.5 14.5t-14.5 35.5v450l500 -500h-450zM544 1500h612q18 0 31 13t13 31v512q0 12 -6 22t-16 16t-22 6h-612q-12 0 -22 -6t-16 -16t-6 -22v-512q0 -18 13 -31t31 -13zM600 1640v360h500v-360l-142 228l-100 -166zM749 1765q35 0 59.5 24.5t24.5 59.5q0 17 -6.5 33 t-18 27t-27 17.5t-32.5 6.5q-35 0 -59.5 -24.5t-24.5 -59.5q0 -23 11 -42.5t30.5 -30.5t42.5 -11zM900 500v400h-100v100h300v-100h-100v-400h-100zM1200 500v500h100v-500h-100zM1400 500v400l100 100h200v-100h-200v-100h200v-100h-200v-200h-100z" />
<glyph unicode="&#xe054;" d="M250 0q-21 0 -35.5 14.5t-14.5 35.5v2300q0 21 14.5 35.5t35.5 14.5h1250v-550q0 -21 14.5 -35.5t35.5 -14.5h550v-700h-1400q-41 0 -70.5 -29.5t-29.5 -70.5v-500q0 -41 29.5 -70.5t70.5 -29.5h1400v-350q0 -21 -14.5 -35.5t-35.5 -14.5h-1800zM1650 1900 q-21 0 -35.5 14.5t-14.5 35.5v450l500 -500h-450zM544 1500h612q18 0 31 13t13 31v512q0 12 -6 22t-16 16t-22 6h-612q-12 0 -22 -6t-16 -16t-6 -22v-512q0 -18 13 -31t31 -13zM600 1640v360h500v-360l-142 228l-100 -166zM749 1765q35 0 59.5 24.5t24.5 59.5q0 17 -6.5 33 t-18 27t-27 17.5t-32.5 6.5q-35 0 -59.5 -24.5t-24.5 -59.5q0 -23 11 -42.5t30.5 -30.5t42.5 -11zM900 500v400h-100v100h300v-100h-100v-400h-100zM1200 500v500h100v-500h-100zM1400 500v400l100 100h200v-100h-200v-100h200v-100h-200v-200h-100zM1800 500v400l100 100 h200v-100h-200v-100h200v-100h-200v-200h-100z" />
<glyph unicode="&#xe055;" d="M250 0q-21 0 -35.5 14.5t-14.5 35.5v2300q0 21 14.5 35.5t35.5 14.5h1250v-550q0 -21 14.5 -35.5t35.5 -14.5h550v-700h-1400q-41 0 -70.5 -29.5t-29.5 -70.5v-500q0 -41 29.5 -70.5t70.5 -29.5h1400v-350q0 -21 -14.5 -35.5t-35.5 -14.5h-1800zM1650 1900 q-21 0 -35.5 14.5t-14.5 35.5v450l500 -500h-450zM544 1500h612q18 0 31 13t13 31v512q0 12 -6 22t-16 16t-22 6h-612q-12 0 -22 -6t-16 -16t-6 -22v-512q0 -18 13 -31t31 -13zM600 1640v360h500v-360l-142 228l-100 -166zM749 1765q35 0 59.5 24.5t24.5 59.5q0 17 -6.5 33 t-18 27t-27 17.5t-32.5 6.5q-35 0 -59.5 -24.5t-24.5 -59.5q0 -23 11 -42.5t30.5 -30.5t42.5 -11zM800 500v500h300v-100h-200v-300h100v200h100v-300h-300zM1200 500v500h100v-500h-100zM1400 500v400l100 100h200v-100h-200v-100h200v-100h-200v-200h-100z" />
<glyph unicode="&#xe056;" d="M250 0q-21 0 -35.5 14.5t-14.5 35.5v2300q0 21 14.5 35.5t35.5 14.5h1250v-550q0 -21 14.5 -35.5t35.5 -14.5h550v-700h-1400q-41 0 -70.5 -29.5t-29.5 -70.5v-500q0 -41 29.5 -70.5t70.5 -29.5h1400v-350q0 -21 -14.5 -35.5t-35.5 -14.5h-1800zM1650 1900 q-21 0 -35.5 14.5t-14.5 35.5v450l500 -500h-450zM544 1500h612q18 0 31 13t13 31v512q0 12 -6 22t-16 16t-22 6h-612q-12 0 -22 -6t-16 -16t-6 -22v-512q0 -18 13 -31t31 -13zM600 1640v360h500v-360l-142 228l-100 -166zM749 1765q35 0 59.5 24.5t24.5 59.5q0 17 -6.5 33 t-18 27t-27 17.5t-32.5 6.5q-35 0 -59.5 -24.5t-24.5 -59.5q0 -23 11 -42.5t30.5 -30.5t42.5 -11zM800 500v500h200l100 -100v-100l-50 -50l50 -50v-100l-100 -100h-200zM1200 500v500h100v-100h100v100h100v-500h-100v300h-100v-300h-100zM1600 500v500h200l100 -100v-200 l-100 -100h-100v-100h-100zM900 800h100v100h-100v-100zM1700 700h100v200h-100v-200zM900 600h100v100h-100v-100z" />
<glyph unicode="&#xe057;" d="M250 0q-21 0 -35.5 14.5t-14.5 35.5v2300q0 21 14.5 35.5t35.5 14.5h1250v-550q0 -21 14.5 -35.5t35.5 -14.5h550v-700h-1400q-41 0 -70.5 -29.5t-29.5 -70.5v-500q0 -41 29.5 -70.5t70.5 -29.5h1400v-350q0 -21 -14.5 -35.5t-35.5 -14.5h-1800zM1650 1900 q-21 0 -35.5 14.5t-14.5 35.5v450l500 -500h-450zM544 1500h612q18 0 31 13t13 31v512q0 12 -6 22t-16 16t-22 6h-612q-12 0 -22 -6t-16 -16t-6 -22v-512q0 -18 13 -31t31 -13zM600 1640v360h500v-360l-142 228l-100 -166zM749 1765q35 0 59.5 24.5t24.5 59.5q0 17 -6.5 33 t-18 27t-27 17.5t-32.5 6.5q-35 0 -59.5 -24.5t-24.5 -59.5q0 -23 11 -42.5t30.5 -30.5t42.5 -11zM900 500v400h-100v100h300v-100h-100v-400h-100zM1200 500v500h300v-100h-200v-300h100v200h100v-300h-300zM1600 500v400l100 100h100l100 -100v-400h-100v100h-100v-100 h-100zM1700 700h100v200h-100v-200z" />
<glyph unicode="&#xe058;" d="M250 0q-21 0 -35.5 14.5t-14.5 35.5v2300q0 21 14.5 35.5t35.5 14.5h1250v-550q0 -21 14.5 -35.5t35.5 -14.5h550v-700h-1400q-41 0 -70.5 -29.5t-29.5 -70.5v-500q0 -41 29.5 -70.5t70.5 -29.5h1400v-350q0 -21 -14.5 -35.5t-35.5 -14.5h-1800zM1650 1900 q-21 0 -35.5 14.5t-14.5 35.5v450l500 -500h-450zM544 1500h612q18 0 31 13t13 31v512q0 12 -6 22t-16 16t-22 6h-612q-12 0 -22 -6t-16 -16t-6 -22v-512q0 -18 13 -31t31 -13zM600 1640v360h500v-360l-142 228l-100 -166zM749 1765q35 0 59.5 24.5t24.5 59.5q0 17 -6.5 33 t-18 27t-27 17.5t-32.5 6.5q-35 0 -59.5 -24.5t-24.5 -59.5q0 -23 11 -42.5t30.5 -30.5t42.5 -11zM900 500v400h-100v100h300v-100h-100v-400h-100zM1200 500v500h100v-200h100v200h100v-500h-100v200h-100v-200h-100zM1600 500v500h100v-100h100v100h100v-500h-100v300 h-100v-300h-100z" />
<glyph unicode="&#xe059;" d="M250 0q-21 0 -35.5 14.5t-14.5 35.5v2300q0 21 14.5 35.5t35.5 14.5h1250v-550q0 -21 14.5 -35.5t35.5 -14.5h550v-700h-1400q-41 0 -70.5 -29.5t-29.5 -70.5v-500q0 -41 29.5 -70.5t70.5 -29.5h1400v-350q0 -21 -14.5 -35.5t-35.5 -14.5h-1800zM1650 1900 q-21 0 -35.5 14.5t-14.5 35.5v450l500 -500h-450zM544 1500h612q18 0 31 13t13 31v512q0 12 -6 22t-16 16t-22 6h-612q-12 0 -22 -6t-16 -16t-6 -22v-512q0 -18 13 -31t31 -13zM600 1640v360h500v-360l-142 228l-100 -166zM749 1765q35 0 59.5 24.5t24.5 59.5q0 17 -6.5 33 t-18 27t-27 17.5t-32.5 6.5q-35 0 -59.5 -24.5t-24.5 -59.5q0 -23 11 -42.5t30.5 -30.5t42.5 -11zM900 500v200l-100 100v200h100v-200h100v200h100v-200l-100 -100v-200h-100zM1300 500l-100 100v400h100v-400h100v400h100v-400l-100 -100h-100zM1600 500v500h100v-400h100 v-100h-200zM1800 600v400h100v-400h-100z" />
<glyph unicode="&#xe060;" d="M250 0q-21 0 -35.5 14.5t-14.5 35.5v2300q0 21 14.5 35.5t35.5 14.5h1250v-550q0 -21 14.5 -35.5t35.5 -14.5h550v-700h-1400q-41 0 -70.5 -29.5t-29.5 -70.5v-500q0 -41 29.5 -70.5t70.5 -29.5h1400v-350q0 -21 -14.5 -35.5t-35.5 -14.5h-1800zM1650 1900 q-21 0 -35.5 14.5t-14.5 35.5v450l500 -500h-450zM544 1500h612q18 0 31 13t13 31v512q0 12 -6 22t-16 16t-22 6h-612q-12 0 -22 -6t-16 -16t-6 -22v-512q0 -18 13 -31t31 -13zM600 1640v360h500v-360l-142 228l-100 -166zM749 1765q35 0 59.5 24.5t24.5 59.5q0 17 -6.5 33 t-18 27t-27 17.5t-32.5 6.5q-35 0 -59.5 -24.5t-24.5 -59.5q0 -23 11 -42.5t30.5 -30.5t42.5 -11zM800 500v500h200l100 -100v-300l-100 -100h-200zM1200 500v500h200l100 -100v-300l-100 -100h-200zM1600 800v100l100 100h200v-100h-200v-100h-100zM900 600h100v300h-100 v-300zM1300 600h100v300h-100v-300zM1700 700v100h100v-100h-100zM1600 500v100h200v100h100v-100l-100 -100h-200z" />
<glyph unicode="&#xe061;" d="M250 0q-21 0 -35.5 14.5t-14.5 35.5v2300q0 21 14.5 35.5t35.5 14.5h1250v-550q0 -21 14.5 -35.5t35.5 -14.5h550v-700h-1400q-41 0 -70.5 -29.5t-29.5 -70.5v-500q0 -41 29.5 -70.5t70.5 -29.5h1400v-350q0 -21 -14.5 -35.5t-35.5 -14.5h-1800zM1650 1900 q-21 0 -35.5 14.5t-14.5 35.5v450l500 -500h-450zM500 1400h300v200l200 200h200v300h-300v-200l-200 -200h-200v-300zM1000 1900v100h100v-100h-100zM600 1500v100h100v-100h-100zM800 500v400l100 100h100l100 -100v-400h-100v100h-100v-100h-100zM1200 500v500h100v-500 h-100zM900 700h100v200h-100v-200z" />
<glyph unicode="&#xe062;" d="M250 0q-21 0 -35.5 14.5t-14.5 35.5v2300q0 21 14.5 35.5t35.5 14.5h1250v-550q0 -21 14.5 -35.5t35.5 -14.5h550v-700h-1400q-41 0 -70.5 -29.5t-29.5 -70.5v-500q0 -41 29.5 -70.5t70.5 -29.5h1400v-350q0 -21 -14.5 -35.5t-35.5 -14.5h-1800zM1650 1900 q-21 0 -35.5 14.5t-14.5 35.5v450l500 -500h-450zM500 1400h300v200l200 200h200v300h-300v-200l-200 -200h-200v-300zM1000 1900v100h100v-100h-100zM600 1500v100h100v-100h-100zM900 500l-100 100v300l100 100h200v-100h-200v-100h200v-100h-200v-100h200v-100h-200z M1200 500v500h200l100 -100v-200l-100 -100h-100v-100h-100zM1600 800v100l100 100h200v-100h-200v-100h-100zM1300 700h100v200h-100v-200zM1700 700v100h100v-100h-100zM1600 500v100h200v100h100v-100l-100 -100h-200z" />
<glyph unicode="&#xe063;" d="M250 0q-21 0 -35.5 14.5t-14.5 35.5v2300q0 21 14.5 35.5t35.5 14.5h1250v-550q0 -21 14.5 -35.5t35.5 -14.5h550v-700h-1400q-41 0 -70.5 -29.5t-29.5 -70.5v-500q0 -41 29.5 -70.5t70.5 -29.5h1400v-350q0 -21 -14.5 -35.5t-35.5 -14.5h-1800zM1650 1900 q-21 0 -35.5 14.5t-14.5 35.5v450l500 -500h-450zM500 1400h300v200l200 200h200v300h-300v-200l-200 -200h-200v-300zM1000 1900v100h100v-100h-100zM600 1500v100h100v-100h-100zM800 500v500h200l100 -100v-200l-100 -100h-100v-100h-100zM1200 800v100l100 100h200v-100 h-200v-100h-100zM900 700h100v200h-100v-200zM1300 700v100h100v-100h-100zM1200 500v100h200v100h100v-100l-100 -100h-200z" />
<glyph unicode="&#xe064;" d="M250 0q-21 0 -35.5 14.5t-14.5 35.5v2300q0 21 14.5 35.5t35.5 14.5h1250v-550q0 -21 14.5 -35.5t35.5 -14.5h550v-700h-1400q-41 0 -70.5 -29.5t-29.5 -70.5v-500q0 -41 29.5 -70.5t70.5 -29.5h1400v-350q0 -21 -14.5 -35.5t-35.5 -14.5h-1800zM1650 1900 q-21 0 -35.5 14.5t-14.5 35.5v450l500 -500h-450zM500 1400h300v200l200 200h200v300h-300v-200l-200 -200h-200v-300zM1000 1900v100h100v-100h-100zM600 1500v100h100v-100h-100zM800 800v100l100 100h200v-100h-200v-100h-100zM1200 500v500h100v-400h100v-100h-200z M1400 600v400h100v-400h-100zM1600 500v500h300v-100h-200v-300h100v200h100v-300h-300zM900 700v100h100v-100h-100zM800 500v100h200v100h100v-100l-100 -100h-200z" />
<glyph unicode="&#xe065;" d="M250 0q-21 0 -35.5 14.5t-14.5 35.5v2300q0 21 14.5 35.5t35.5 14.5h1250v-550q0 -21 14.5 -35.5t35.5 -14.5h550v-700h-1400q-41 0 -70.5 -29.5t-29.5 -70.5v-500q0 -41 29.5 -70.5t70.5 -29.5h1400v-350q0 -21 -14.5 -35.5t-35.5 -14.5h-1800zM1650 1900 q-21 0 -35.5 14.5t-14.5 35.5v450l500 -500h-450zM500 1400h500v200h200v500h-500v-200h-200v-500zM800 1700v300h300v-300h-300zM600 1500v300h100v-200h200v-100h-300zM800 500v500h200l100 -100v-200l-100 -100h-100v-100h-100zM1200 500v500h200l100 -100v-300 l-100 -100h-200zM1600 500v500h300v-100h-200v-100h200v-100h-200v-200h-100zM900 700h100v200h-100v-200zM1300 600h100v300h-100v-300z" />
<glyph unicode="&#xe066;" d="M250 0q-21 0 -35.5 14.5t-14.5 35.5v2300q0 21 14.5 35.5t35.5 14.5h1250v-550q0 -21 14.5 -35.5t35.5 -14.5h550v-700h-1400q-41 0 -70.5 -29.5t-29.5 -70.5v-500q0 -41 29.5 -70.5t70.5 -29.5h1400v-350q0 -21 -14.5 -35.5t-35.5 -14.5h-1800zM1650 1900 q-21 0 -35.5 14.5t-14.5 35.5v450l500 -500h-450zM500 1400h500v200h200v500h-500v-200h-200v-500zM800 1700v300h300v-300h-300zM600 1500v300h100v-200h200v-100h-300zM800 500v500h200l100 -100v-200l-100 -100h-100v-100h-100zM1300 500l-100 100v300l100 100h200v-100 h-200v-300h200v-100h-200zM1700 500v400h-100v100h300v-100h-100v-400h-100zM900 700h100v200h-100v-200z" />
<glyph unicode="&#xe067;" d="M250 0q-21 0 -35.5 14.5t-14.5 35.5v2300q0 21 14.5 35.5t35.5 14.5h1250v-550q0 -21 14.5 -35.5t35.5 -14.5h550v-700h-1400q-41 0 -70.5 -29.5t-29.5 -70.5v-500q0 -41 29.5 -70.5t70.5 -29.5h1400v-350q0 -21 -14.5 -35.5t-35.5 -14.5h-1800zM1650 1900 q-21 0 -35.5 14.5t-14.5 35.5v450l500 -500h-450zM500 1400h500v200h200v500h-500v-200h-200v-500zM800 1700v300h300v-300h-300zM600 1500v300h100v-200h200v-100h-300zM800 500v500h100v-500h-100zM1000 500v500h200v-100h-100v-400h-100zM1400 500v500h200l100 -100v-300 l-100 -100h-200zM1800 500v500h200l100 -100v-300l-100 -100h-200zM1200 500v400h100v-400h-100zM1500 600h100v300h-100v-300zM1900 600h100v300h-100v-300z" />
<glyph unicode="&#xe068;" d="M250 0q-21 0 -35.5 14.5t-14.5 35.5v2300q0 21 14.5 35.5t35.5 14.5h1250v-550q0 -21 14.5 -35.5t35.5 -14.5h550v-700h-1400q-41 0 -70.5 -29.5t-29.5 -70.5v-500q0 -41 29.5 -70.5t70.5 -29.5h1400v-350q0 -21 -14.5 -35.5t-35.5 -14.5h-1800zM1650 1900 q-21 0 -35.5 14.5t-14.5 35.5v450l500 -500h-450zM500 1800h300v300h-300v-300zM900 1800h300v300h-300v-300zM600 1900v100h100v-100h-100zM1000 1900v100h100v-100h-100zM500 1400h300v300h-300v-300zM900 1400h300v300h-300v-300zM600 1500v100h100v-100h-100zM1000 1500 v100h100v-100h-100zM800 800v200h100v-200h-100zM1000 800v200h100v-200h-100zM1300 500l-100 100v400h100v-400h200v-100h-200zM1600 500v500h200l100 -100v-200h-100v200h-100v-200l100 -100h-100v-100h-100zM900 700v100h100v-100h-100zM800 500v200h100v-200h-100z M1000 500v200h100v-200h-100zM1800 500v100h100v-100h-100z" />
<glyph unicode="&#xe069;" d="M250 0q-21 0 -35.5 14.5t-14.5 35.5v2300q0 21 14.5 35.5t35.5 14.5h1250v-550q0 -21 14.5 -35.5t35.5 -14.5h550v-700h-1400q-41 0 -70.5 -29.5t-29.5 -70.5v-500q0 -41 29.5 -70.5t70.5 -29.5h1400v-350q0 -21 -14.5 -35.5t-35.5 -14.5h-1800zM1650 1900 q-21 0 -35.5 14.5t-14.5 35.5v450l500 -500h-450zM500 1800h300v300h-300v-300zM900 1800h300v300h-300v-300zM600 1900v100h100v-100h-100zM1000 1900v100h100v-100h-100zM500 1400h300v300h-300v-300zM900 1400h300v300h-300v-300zM600 1500v100h100v-100h-100zM1000 1500 v100h100v-100h-100zM800 800v200h100v-200h-100zM1000 800v200h100v-200h-100zM1300 500l-100 100v400h100v-400h200v-100h-200zM1600 800v100l100 100h200v-100h-200v-100h-100zM900 700v100h100v-100h-100zM1700 700v100h100v-100h-100zM800 500v200h100v-200h-100z M1000 500v200h100v-200h-100zM1600 500v100h200v100h100v-100l-100 -100h-200z" />
<glyph unicode="&#xe070;" d="M250 0q-21 0 -35.5 14.5t-14.5 35.5v2300q0 21 14.5 35.5t35.5 14.5h1250v-550q0 -21 14.5 -35.5t35.5 -14.5h550v-700h-1400q-41 0 -70.5 -29.5t-29.5 -70.5v-500q0 -41 29.5 -70.5t70.5 -29.5h1400v-350q0 -21 -14.5 -35.5t-35.5 -14.5h-1800zM1650 1900 q-21 0 -35.5 14.5t-14.5 35.5v450l500 -500h-450zM500 1800h300v300h-300v-300zM900 1800h300v300h-300v-300zM600 1900v100h100v-100h-100zM1000 1900v100h100v-100h-100zM500 1400h300v300h-300v-300zM900 1400h300v300h-300v-300zM600 1500v100h100v-100h-100zM1000 1500 v100h100v-100h-100zM800 800v200h100v-200h-100zM1000 800v200h100v-200h-100zM1300 500l-100 100v400h100v-400h200v-100h-200zM1600 800v100l100 100h200v-100h-200v-100h-100zM2000 800v200h100v-200h-100zM2200 800v200h100v-200h-100zM900 700v100h100v-100h-100z M1700 700v100h100v-100h-100zM2100 700v100h100v-100h-100zM800 500v200h100v-200h-100zM1000 500v200h100v-200h-100zM1600 500v100h200v100h100v-100l-100 -100h-200zM2000 500v200h100v-200h-100zM2200 500v200h100v-200h-100z" />
<glyph unicode="&#xe071;" d="M250 0q-21 0 -35.5 14.5t-14.5 35.5v2300q0 21 14.5 35.5t35.5 14.5h1250v-550q0 -21 14.5 -35.5t35.5 -14.5h550v-700h-1400q-41 0 -70.5 -29.5t-29.5 -70.5v-500q0 -41 29.5 -70.5t70.5 -29.5h1400v-350q0 -21 -14.5 -35.5t-35.5 -14.5h-1800zM1650 1900 q-21 0 -35.5 14.5t-14.5 35.5v450l500 -500h-450zM500 2000h600q0 21 -3 37t-7 26.5t-12.5 17.5t-15 11t-19 5.5t-20 2t-23.5 0.5h-400q-15 0 -23 -0.5t-20.5 -2t-19 -5.5t-15 -11t-12.5 -17.5t-7 -26.5t-3 -37zM500 1800h600v100h-600v-100zM500 1600h600v100h-600v-100z M600 1400h400q27 0 40 2t29.5 10.5t23.5 30t7 57.5h-600q0 -21 3 -37t7 -26.5t12.5 -17.5t15 -11t19 -5.5t20.5 -2t23 -0.5zM800 500v500h200l100 -100v-300l-100 -100h-200zM1200 500v500h200l100 -100v-100l-50 -50l50 -50v-100l-100 -100h-200zM900 600h100v300h-100 v-300zM1300 800h100v100h-100v-100zM1300 600h100v100h-100v-100z" />
<glyph unicode="&#xe072;" d="M250 0q-21 0 -35.5 14.5t-14.5 35.5v2300q0 21 14.5 35.5t35.5 14.5h1250v-550q0 -21 14.5 -35.5t35.5 -14.5h550v-700h-1400q-41 0 -70.5 -29.5t-29.5 -70.5v-500q0 -41 29.5 -70.5t70.5 -29.5h1400v-350q0 -21 -14.5 -35.5t-35.5 -14.5h-1800zM1650 1900 q-21 0 -35.5 14.5t-14.5 35.5v450l500 -500h-450zM500 2000h600q0 21 -3 37t-7 26.5t-12.5 17.5t-15 11t-19 5.5t-20 2t-23.5 0.5h-400q-15 0 -23 -0.5t-20.5 -2t-19 -5.5t-15 -11t-12.5 -17.5t-7 -26.5t-3 -37zM500 1800h600v100h-600v-100zM500 1600h600v100h-600v-100z M600 1400h400q27 0 40 2t29.5 10.5t23.5 30t7 57.5h-600q0 -21 3 -37t7 -26.5t12.5 -17.5t15 -11t19 -5.5t20.5 -2t23 -0.5zM800 500v500h200l100 -100v-300l-100 -100h-200zM1200 500v500h200l100 -100v-100l-50 -50l50 -50v-100l-100 -100h-200zM1600 500v500h300v-100 h-200v-100h200v-100h-200v-200h-100zM900 600h100v300h-100v-300zM1300 800h100v100h-100v-100zM1300 600h100v100h-100v-100z" />
<glyph unicode="&#xe073;" d="M250 0q-21 0 -35.5 14.5t-14.5 35.5v2300q0 21 14.5 35.5t35.5 14.5h1250v-550q0 -21 14.5 -35.5t35.5 -14.5h550v-700h-1400q-41 0 -70.5 -29.5t-29.5 -70.5v-500q0 -41 29.5 -70.5t70.5 -29.5h1400v-350q0 -21 -14.5 -35.5t-35.5 -14.5h-1800zM1650 1900 q-21 0 -35.5 14.5t-14.5 35.5v450l500 -500h-450zM500 2000h600q0 21 -3 37t-7 26.5t-12.5 17.5t-15 11t-19 5.5t-20 2t-23.5 0.5h-400q-15 0 -23 -0.5t-20.5 -2t-19 -5.5t-15 -11t-12.5 -17.5t-7 -26.5t-3 -37zM500 1800h600v100h-600v-100zM500 1600h600v100h-600v-100z M600 1400h400q27 0 40 2t29.5 10.5t23.5 30t7 57.5h-600q0 -21 3 -37t7 -26.5t12.5 -17.5t15 -11t19 -5.5t20.5 -2t23 -0.5zM800 500v500h100v-100h100v100h100v-500h-100v300h-100v-300h-100zM1200 500v500h200l100 -100v-300l-100 -100h-200zM1600 500v500h200l100 -100 v-100l-50 -50l50 -50v-100l-100 -100h-200zM1300 600h100v300h-100v-300zM1700 800h100v100h-100v-100zM1700 600h100v100h-100v-100z" />
<glyph unicode="&#xe074;" d="M250 0q-21 0 -35.5 14.5t-14.5 35.5v2300q0 21 14.5 35.5t35.5 14.5h1250v-550q0 -21 14.5 -35.5t35.5 -14.5h550v-700h-1400q-41 0 -70.5 -29.5t-29.5 -70.5v-500q0 -41 29.5 -70.5t70.5 -29.5h1400v-350q0 -21 -14.5 -35.5t-35.5 -14.5h-1800zM1650 1900 q-21 0 -35.5 14.5t-14.5 35.5v450l500 -500h-450zM500 2000h600q0 21 -3 37t-7 26.5t-12.5 17.5t-15 11t-19 5.5t-20 2t-23.5 0.5h-400q-15 0 -23 -0.5t-20.5 -2t-19 -5.5t-15 -11t-12.5 -17.5t-7 -26.5t-3 -37zM500 1800h600v100h-600v-100zM500 1600h600v100h-600v-100z M600 1400h400q27 0 40 2t29.5 10.5t23.5 30t7 57.5h-600q0 -21 3 -37t7 -26.5t12.5 -17.5t15 -11t19 -5.5t20.5 -2t23 -0.5zM800 500v500h200l100 -100v-200l-100 -100h-100v-100h-100zM1200 500v500h200l100 -100v-300l-100 -100h-200zM1600 500v500h200l100 -100v-100 l-50 -50l50 -50v-100l-100 -100h-200zM900 700h100v200h-100v-200zM1300 600h100v300h-100v-300zM1700 800h100v100h-100v-100zM1700 600h100v100h-100v-100z" />
<glyph unicode="&#xe075;" d="M1500 1850q0 -21 14.5 -35.5t35.5 -14.5h550v-700h-1400q-41 0 -70.5 -29.5t-29.5 -70.5v-500q0 -41 29.5 -70.5t70.5 -29.5h600v200h100v-200h700v-350q0 -21 -14.5 -35.5t-35.5 -14.5h-1800q-21 0 -35.5 14.5t-14.5 35.5v2300q0 21 14.5 35.5t35.5 14.5h1250v-550z M1650 1900q-21 0 -35.5 14.5t-14.5 35.5v450l500 -500h-450zM500 2000h600q0 21 -3 37t-7 26.5t-12.5 17.5t-15 11t-19 5.5t-20 2t-23.5 0.5h-400q-15 0 -23 -0.5t-20.5 -2t-19 -5.5t-15 -11t-12.5 -17.5t-7 -26.5t-3 -37zM1100 1800v100h-600v-100h600zM1100 1600v100h-600 v-100h600zM1000 1400q16 0 23.5 0.5t20 2t19 5.5t15 11t12.5 17.5t7 26.5t3 37h-600q0 -21 3 -37t7 -26.5t12.5 -17.5t15 -11t19 -5.5t20.5 -2t23 -0.5h400zM1100 900h-200v-100h-100v100l100 100h200v-100zM1400 900h-100v-300h-100v300l100 100h100l100 -100v-300h-100 v300zM1600 1000h100v-400h200v-100h-200l-100 100v400zM1000 700h-100v100h100v-100zM800 600h200v100h100v-100l-100 -100h-200v100z" />
<glyph unicode="&#xe076;" d="M250 0q-21 0 -35.5 14.5t-14.5 35.5v2300q0 21 14.5 35.5t35.5 14.5h1250v-550q0 -21 14.5 -35.5t35.5 -14.5h550v-700h-1400q-41 0 -70.5 -29.5t-29.5 -70.5v-500q0 -41 29.5 -70.5t70.5 -29.5h1400v-350q0 -21 -14.5 -35.5t-35.5 -14.5h-1800zM1650 1900 q-21 0 -35.5 14.5t-14.5 35.5v450l500 -500h-450zM500 2000h600q0 21 -3 37t-7 26.5t-12.5 17.5t-15 11t-19 5.5t-20 2t-23.5 0.5h-400q-15 0 -23 -0.5t-20.5 -2t-19 -5.5t-15 -11t-12.5 -17.5t-7 -26.5t-3 -37zM500 1800h600v100h-600v-100zM500 1600h600v100h-600v-100z M600 1400h400q27 0 40 2t29.5 10.5t23.5 30t7 57.5h-600q0 -21 3 -37t7 -26.5t12.5 -17.5t15 -11t19 -5.5t20.5 -2t23 -0.5zM800 500v400l100 100h100l100 -100v-400h-100v100h-100v-100h-100zM1200 500v400l100 100h100l100 -100v-400h-100v100h-100v-100h-100zM1700 500 l-100 100v300l100 100h200v-100h-200v-300h200v-100h-200zM2000 500v500h200l100 -100v-300l-100 -100h-200zM900 700h100v200h-100v-200zM1300 700h100v200h-100v-200zM2100 600h100v300h-100v-300z" />
<glyph unicode="&#xe077;" d="M250 0q-21 0 -35.5 14.5t-14.5 35.5v2300q0 21 14.5 35.5t35.5 14.5h1250v-550q0 -21 14.5 -35.5t35.5 -14.5h550v-700h-1400q-41 0 -70.5 -29.5t-29.5 -70.5v-500q0 -41 29.5 -70.5t70.5 -29.5h1400v-350q0 -21 -14.5 -35.5t-35.5 -14.5h-1800zM1650 1900 q-21 0 -35.5 14.5t-14.5 35.5v450l500 -500h-450zM850 1381q22 0 48 4l24 97l4 1q30 9 60 25l3 2l86 -52q36 28 67 68l-51 86l2 3q16 29 25 60l1 3l97 25q3 26 3 48q0 20 -3 47l-97 24l-1 4q-9 31 -25 60l-2 3l51 86q-28 37 -67 68l-86 -52l-3 2q-28 16 -60 25l-4 1l-24 97 q-25 4 -48 4q-22 0 -47 -4l-25 -97l-3 -1q-33 -9 -60 -25l-4 -2l-86 52q-37 -29 -67 -68l52 -86l-2 -3q-17 -29 -25 -60l-1 -4l-98 -24q-3 -25 -3 -47t3 -48l98 -25l1 -3q8 -31 25 -60l1 -3l-51 -86q28 -37 67 -68l86 52l3 -2q29 -16 61 -25l3 -1l25 -98q25 -3 47 -3z M850.5 1602q-61.5 0 -105.5 43.5t-44 105t44 105t105.5 43.5t105 -43.5t43.5 -105t-43.5 -105t-105 -43.5zM800 500v400l100 100h100l100 -100v-400h-100v100h-100v-100h-100zM1200 500v500h200l100 -100v-200l-100 -100h-100v-100h-100zM1600 500v500h200l100 -100v-200 l-100 -100h-100v-100h-100zM900 700h100v200h-100v-200zM1300 700h100v200h-100v-200zM1700 700h100v200h-100v-200z" />
<glyph unicode="&#xe078;" d="M250 0q-21 0 -35.5 14.5t-14.5 35.5v2300q0 21 14.5 35.5t35.5 14.5h1250v-550q0 -21 14.5 -35.5t35.5 -14.5h550v-700h-1400q-41 0 -70.5 -29.5t-29.5 -70.5v-500q0 -41 29.5 -70.5t70.5 -29.5h1400v-350q0 -21 -14.5 -35.5t-35.5 -14.5h-1800zM1650 1900 q-21 0 -35.5 14.5t-14.5 35.5v450l500 -500h-450zM850 1381q22 0 48 4l24 97l4 1q30 9 60 25l3 2l86 -52q36 28 67 68l-51 86l2 3q16 29 25 60l1 3l97 25q3 26 3 48q0 20 -3 47l-97 24l-1 4q-9 30 -25 60l-2 3l51 86q-28 37 -67 68l-86 -52l-3 2q-28 16 -60 25l-4 1l-24 97 q-25 4 -48 4q-22 0 -47 -4l-25 -97l-3 -1q-33 -9 -61 -25l-3 -2l-86 52q-37 -29 -67 -68l52 -86l-2 -3q-17 -29 -25 -60l-1 -4l-98 -24q-3 -25 -3 -47t3 -48l98 -25l1 -3q8 -31 25 -60l1 -3l-51 -86q28 -37 67 -68l86 52l3 -2q30 -16 61 -25l3 -1l25 -98q25 -3 47 -3z M850.5 1602q-61.5 0 -105.5 43.5t-44 105t43.5 105t105.5 43.5t105.5 -43.5t43.5 -105t-43.5 -105t-105 -43.5zM900 500l-100 100v300l100 100h200v-100h-200v-100h200v-100h-200v-100h200v-100h-200zM1200 800v200h100v-200h-100zM1400 800v200h100v-200h-100zM1700 500 l-100 100v300l100 100h200v-100h-200v-100h200v-100h-200v-100h200v-100h-200zM1300 700v100h100v-100h-100zM1200 500v200h100v-200h-100zM1400 500v200h100v-200h-100z" />
<glyph unicode="&#xe079;" d="M250 0q-21 0 -35.5 14.5t-14.5 35.5v2300q0 21 14.5 35.5t35.5 14.5h1250v-550q0 -21 14.5 -35.5t35.5 -14.5h550v-700h-1400q-41 0 -70.5 -29.5t-29.5 -70.5v-500q0 -41 29.5 -70.5t70.5 -29.5h1400v-350q0 -21 -14.5 -35.5t-35.5 -14.5h-1800zM1650 1900 q-21 0 -35.5 14.5t-14.5 35.5v450l500 -500h-450zM850 1381q22 0 48 4l24 97l4 1q30 9 60 25l3 2l86 -52q36 28 67 68l-51 86l2 3q16 29 25 60l1 3l97 25q3 26 3 48q0 20 -3 47l-97 24l-1 4q-9 30 -25 60l-2 3l51 86q-28 37 -67 68l-86 -52l-3 2q-28 16 -60 25l-4 1l-24 97 q-25 4 -48 4q-22 0 -47 -4l-25 -97l-3 -1q-33 -9 -61 -25l-3 -2l-86 52q-37 -29 -67 -68l52 -86l-2 -3q-17 -29 -25 -60l-1 -4l-98 -24q-3 -25 -3 -47t3 -48l98 -25l1 -3q8 -31 25 -60l1 -3l-51 -86q28 -37 67 -68l86 52l3 -2q30 -16 61 -25l3 -1l25 -98q25 -3 47 -3z M850.5 1602q-61.5 0 -105.5 43.5t-44 105t43.5 105t105.5 43.5t105.5 -43.5t43.5 -105t-43.5 -105t-105 -43.5zM900 500l-100 100v300l100 100h200v-100h-200v-300h200v-100h-200zM1300 500l-100 100v300l100 100h100l100 -100v-300l-100 -100h-100zM1600 500v500h100v-100 h100v100h100v-500h-100v300h-100v-300h-100zM1300 600h100v300h-100v-300z" />
<glyph unicode="&#xe080;" d="M250 0q-21 0 -35.5 14.5t-14.5 35.5v2300q0 21 14.5 35.5t35.5 14.5h1250v-550q0 -21 14.5 -35.5t35.5 -14.5h550v-700h-1400q-41 0 -70.5 -29.5t-29.5 -70.5v-500q0 -41 29.5 -70.5t70.5 -29.5h1400v-350q0 -21 -14.5 -35.5t-35.5 -14.5h-1800zM1650 1900 q-21 0 -35.5 14.5t-14.5 35.5v450l500 -500h-450zM850 1381q22 0 48 4l24 97l4 1q30 9 60 25l3 2l86 -52q36 28 67 68l-51 86l2 3q16 29 25 60l1 3l97 25q3 26 3 48q0 20 -3 47l-97 24l-1 4q-9 30 -25 60l-2 3l51 86q-28 37 -67 68l-86 -52l-3 2q-28 16 -60 25l-4 1l-24 97 q-25 4 -48 4q-22 0 -47 -4l-25 -97l-3 -1q-33 -9 -61 -25l-3 -2l-86 52q-37 -29 -67 -68l52 -86l-2 -3q-17 -29 -25 -60l-1 -4l-98 -24q-3 -25 -3 -47t3 -48l98 -25l1 -3q8 -31 25 -60l1 -3l-51 -86q28 -37 67 -68l86 52l3 -2q30 -16 61 -25l3 -1l25 -98q25 -3 47 -3z M850.5 1602q-61.5 0 -105.5 43.5t-44 105t43.5 105t105.5 43.5t105.5 -43.5t43.5 -105t-43.5 -105t-105 -43.5zM800 500v500h200l100 -100v-100l-50 -50l50 -50v-100l-100 -100h-200zM1200 500v400l100 100h100l100 -100v-400h-100v100h-100v-100h-100zM1700 500v400h-100 v100h300v-100h-100v-400h-100zM900 800h100v100h-100v-100zM1300 700h100v200h-100v-200zM900 600h100v100h-100v-100z" />
<glyph unicode="&#xe081;" d="M1500 1850q0 -21 14.5 -35.5t35.5 -14.5h550v-700h-1400q-41 0 -70.5 -29.5t-29.5 -70.5v-500q0 -41 29.5 -70.5t70.5 -29.5h1400v-350q0 -21 -14.5 -35.5t-35.5 -14.5h-1800q-21 0 -35.5 14.5t-14.5 35.5v2300q0 21 14.5 35.5t35.5 14.5h1250v-550zM1650 1900 q-21 0 -35.5 14.5t-14.5 35.5v450l500 -500h-450zM1216 1703q3 26 3 48q0 20 -3 47l-97 24l-1 4q-9 31 -25 60l-2 3l51 86q-28 37 -67 68l-86 -52l-3 2q-28 16 -60 25l-4 1l-24 97q-25 4 -48 4q-22 0 -47 -4l-25 -97l-3 -1q-33 -9 -60 -25l-4 -2l-86 52q-37 -29 -67 -68 l52 -86l-2 -3q-17 -29 -25 -60l-1 -4l-98 -24q-3 -25 -3 -47t3 -48l98 -25l1 -3q8 -31 25 -60l1 -3l-51 -86q28 -37 67 -68l86 52l3 -2q29 -16 61 -25l3 -1l25 -97q25 -4 47 -4t48 4l24 97l4 1q30 9 60 25l3 2l86 -52q36 28 67 68l-51 86l2 3q16 29 25 60l1 3zM850.5 1899 q61.5 0 105 -43.5t43.5 -105t-43.5 -105t-105 -43.5t-105.5 43.5t-44 105t44 105t105.5 43.5zM1100 500h-100v100h-100v-100h-100v400l100 100h100l100 -100v-400zM1200 500v500h200l100 -100v-200l-100 -100h-100v-100h-100zM1900 1000v-200h-100v200h100zM1900 500h-100 v200h-100v-200h-100v500h100v-200h100v-100h100v-200zM900 700h100v200h-100v-200zM1300 900v-200h100v200h-100z" />
<glyph unicode="&#xe082;" d="M250 0q-21 0 -35.5 14.5t-14.5 35.5v2300q0 21 14.5 35.5t35.5 14.5h1250v-550q0 -21 14.5 -35.5t35.5 -14.5h550v-700h-1400q-41 0 -70.5 -29.5t-29.5 -70.5v-500q0 -41 29.5 -70.5t70.5 -29.5h1400v-350q0 -21 -14.5 -35.5t-35.5 -14.5h-1800zM1650 1900 q-21 0 -35.5 14.5t-14.5 35.5v450l500 -500h-450zM850 1381q22 0 48 4l24 97l4 1q30 9 60 25l3 2l86 -52q36 28 67 68l-51 86l2 3q16 29 25 60l1 3l97 25q3 26 3 48q0 20 -3 47l-97 24l-1 4q-9 31 -25 60l-2 3l51 86q-28 37 -67 68l-86 -52l-3 2q-28 16 -60 25l-4 1l-24 97 q-25 4 -48 4q-22 0 -47 -4l-25 -97l-3 -1q-33 -9 -60 -25l-4 -2l-86 52q-37 -29 -67 -68l52 -86l-2 -3q-17 -29 -25 -60l-1 -4l-98 -24q-3 -25 -3 -47t3 -48l98 -25l1 -3q8 -31 25 -60l1 -3l-51 -86q28 -37 67 -68l86 52l3 -2q29 -16 61 -25l3 -1l25 -98q25 -3 47 -3z M850.5 1602q-61.5 0 -105.5 43.5t-44 105t44 105t105.5 43.5t105 -43.5t43.5 -105t-43.5 -105t-105 -43.5zM900 500l-100 100v200h100v-200h100v400h100v-400l-100 -100h-100zM1200 500v400l100 100h100l100 -100v-400h-100v100h-100v-100h-100zM1600 500v500h200l100 -100 v-200h-100v200h-100v-200l100 -100h-100v-100h-100zM1300 700h100v200h-100v-200zM1800 500v100h100v-100h-100z" />
<glyph unicode="&#xe083;" d="M250 0q-21 0 -35.5 14.5t-14.5 35.5v2300q0 21 14.5 35.5t35.5 14.5h1250v-550q0 -21 14.5 -35.5t35.5 -14.5h550v-700h-1400q-41 0 -70.5 -29.5t-29.5 -70.5v-500q0 -41 29.5 -70.5t70.5 -29.5h1400v-350q0 -21 -14.5 -35.5t-35.5 -14.5h-1800zM1650 1900 q-21 0 -35.5 14.5t-14.5 35.5v450l500 -500h-450zM850 1381q22 0 48 4l24 97l4 1q30 9 60 25l3 2l86 -52q36 28 67 68l-51 86l2 3q16 29 25 60l1 3l97 25q3 26 3 48q0 20 -3 47l-97 24l-1 4q-9 31 -25 60l-2 3l51 86q-28 37 -67 68l-86 -52l-3 2q-28 16 -60 25l-4 1l-24 97 q-25 4 -48 4q-22 0 -47 -4l-25 -97l-3 -1q-33 -9 -60 -25l-4 -2l-86 52q-37 -29 -67 -68l52 -86l-2 -3q-17 -29 -25 -60l-1 -4l-98 -24q-3 -25 -3 -47t3 -48l98 -25l1 -3q8 -31 25 -60l1 -3l-51 -86q28 -37 67 -68l86 52l3 -2q29 -16 61 -25l3 -1l25 -98q25 -3 47 -3z M850.5 1602q-61.5 0 -105.5 43.5t-44 105t44 105t105.5 43.5t105 -43.5t43.5 -105t-43.5 -105t-105 -43.5zM800 500v500h100v-300h100v300h100v-500h-100v100h-100v-100h-100zM1200 800v100l100 100h200v-100h-200v-100h-100zM1600 500v400l100 100h200v-100h-200v-100h200 v-100h-200v-200h-100zM1300 700v100h100v-100h-100zM1200 500v100h200v100h100v-100l-100 -100h-200z" />
<glyph unicode="&#xe084;" d="M250 0q-21 0 -35.5 14.5t-14.5 35.5v2300q0 21 14.5 35.5t35.5 14.5h1250v-550q0 -21 14.5 -35.5t35.5 -14.5h550v-700h-1400q-41 0 -70.5 -29.5t-29.5 -70.5v-500q0 -41 29.5 -70.5t70.5 -29.5h1400v-350q0 -21 -14.5 -35.5t-35.5 -14.5h-1800zM1650 1900 q-21 0 -35.5 14.5t-14.5 35.5v450l500 -500h-450zM850 1381q22 0 48 4l24 97l4 1q30 9 60 25l3 2l86 -52q36 28 67 68l-51 86l2 3q16 29 25 60l1 3l97 25q3 26 3 48q0 20 -3 47l-97 24l-1 4q-9 31 -25 60l-2 3l51 86q-28 37 -67 68l-86 -52l-3 2q-28 16 -60 25l-4 1l-24 97 q-25 4 -48 4q-22 0 -47 -4l-25 -97l-3 -1q-33 -9 -60 -25l-4 -2l-86 52q-37 -29 -67 -68l52 -86l-2 -3q-17 -29 -25 -60l-1 -4l-98 -24q-3 -25 -3 -47t3 -48l98 -25l1 -3q8 -31 25 -60l1 -3l-51 -86q28 -37 67 -68l86 52l3 -2q29 -16 61 -25l3 -1l25 -98q25 -3 47 -3z M850.5 1602q-61.5 0 -105.5 43.5t-44 105t44 105t105.5 43.5t105 -43.5t43.5 -105t-43.5 -105t-105 -43.5zM800 500v500h200l100 -100v-200l-100 -100h-100v-100h-100zM1200 500v500h100v-500h-100zM1400 500v400l100 100h200v-100h-200v-100h200v-100h-200v-200h-100z M900 700h100v200h-100v-200z" />
<glyph unicode="&#xe085;" d="M250 0q-21 0 -35.5 14.5t-14.5 35.5v2300q0 21 14.5 35.5t35.5 14.5h1250v-550q0 -21 14.5 -35.5t35.5 -14.5h550v-700h-1400q-41 0 -70.5 -29.5t-29.5 -70.5v-500q0 -41 29.5 -70.5t70.5 -29.5h1400v-350q0 -21 -14.5 -35.5t-35.5 -14.5h-1800zM1650 1900 q-21 0 -35.5 14.5t-14.5 35.5v450l500 -500h-450zM850 1381q22 0 48 4l24 97l4 1q30 9 60 25l3 2l86 -52q36 28 67 68l-51 86l2 3q16 29 25 60l1 3l97 25q3 26 3 48q0 20 -3 47l-97 24l-1 4q-9 31 -25 60l-2 3l51 86q-28 37 -67 68l-86 -52l-3 2q-28 16 -60 25l-4 1l-24 97 q-25 4 -48 4q-22 0 -47 -4l-25 -97l-3 -1q-33 -9 -60 -25l-4 -2l-86 52q-37 -29 -67 -68l52 -86l-2 -3q-17 -29 -25 -60l-1 -4l-98 -24q-3 -25 -3 -47t3 -48l98 -25l1 -3q8 -31 25 -60l1 -3l-51 -86q28 -37 67 -68l86 52l3 -2q29 -16 61 -25l3 -1l25 -98q25 -3 47 -3z M850.5 1602q-61.5 0 -105.5 43.5t-44 105t44 105t105.5 43.5t105 -43.5t43.5 -105t-43.5 -105t-105 -43.5zM800 500v500h100v-400h100v-100h-200zM1000 600v400h100v-400h-100zM1200 500v500h200l100 -100v-100l-50 -50l50 -50v-100l-100 -100h-200zM1300 800h100v100h-100 v-100zM1300 600h100v100h-100v-100z" />
<glyph unicode="&#xe086;" d="M250 0q-21 0 -35.5 14.5t-14.5 35.5v2300q0 21 14.5 35.5t35.5 14.5h1250v-550q0 -21 14.5 -35.5t35.5 -14.5h550v-700h-1400q-41 0 -70.5 -29.5t-29.5 -70.5v-500q0 -41 29.5 -70.5t70.5 -29.5h1400v-350q0 -21 -14.5 -35.5t-35.5 -14.5h-1800zM1650 1900 q-21 0 -35.5 14.5t-14.5 35.5v450l500 -500h-450zM850 1381q22 0 48 4l24 97l4 1q30 9 60 25l3 2l86 -52q36 28 67 68l-51 86l2 3q16 29 25 60l1 3l97 25q3 26 3 48q0 20 -3 47l-97 24l-1 4q-9 31 -25 60l-2 3l51 86q-28 37 -67 68l-86 -52l-3 2q-28 16 -60 25l-4 1l-24 97 q-25 4 -48 4q-22 0 -47 -4l-25 -97l-3 -1q-33 -9 -60 -25l-4 -2l-86 52q-37 -29 -67 -68l52 -86l-2 -3q-17 -29 -25 -60l-1 -4l-98 -24q-3 -25 -3 -47t3 -48l98 -25l1 -3q8 -31 25 -60l1 -3l-51 -86q28 -37 67 -68l86 52l3 -2q29 -16 61 -25l3 -1l25 -98q25 -3 47 -3z M850.5 1602q-61.5 0 -105.5 43.5t-44 105t44 105t105.5 43.5t105 -43.5t43.5 -105t-43.5 -105t-105 -43.5zM900 500l-100 100v300l100 100h200v-100h-200v-300h200v-100h-200zM1300 500l-100 100v300l100 100h200v-100h-200v-300h100v200h100v-300h-200zM1600 500v500h100 v-500h-100z" />
<glyph unicode="&#xe087;" d="M250 0q-21 0 -35.5 14.5t-14.5 35.5v2300q0 21 14.5 35.5t35.5 14.5h1250v-550q0 -21 14.5 -35.5t35.5 -14.5h550v-700h-1400q-27 0 -50 -13.5t-36.5 -36.5t-13.5 -50v-500q0 -41 29.5 -70.5t70.5 -29.5h1400v-350q0 -21 -14.5 -35.5t-35.5 -14.5h-1800zM1650 1900 q-21 0 -35.5 14.5t-14.5 35.5v450l500 -500h-450zM820 1607v155l-151 88l151 84v154l-340 -197v-79zM880 1607l340 205v79l-340 197v-154l151 -84l-151 -88v-155zM900 500l-100 100v300l100 100h200v-100h-200v-300h200v-100h-200zM1200 800v100l100 100h200v-100h-200v-100 h-100zM1600 800v100l100 100h200v-100h-200v-100h-100zM1300 700v100h100v-100h-100zM1700 700v100h100v-100h-100zM1200 500v100h200v100h100v-100l-100 -100h-200zM1600 500v100h200v100h100v-100l-100 -100h-200z" />
<glyph unicode="&#xe088;" d="M250 0q-21 0 -35.5 14.5t-14.5 35.5v2300q0 21 14.5 35.5t35.5 14.5h1250v-550q0 -21 14.5 -35.5t35.5 -14.5h550v-700h-1400q-27 0 -50 -13.5t-36.5 -36.5t-13.5 -50v-500q0 -41 29.5 -70.5t70.5 -29.5h1400v-350q0 -21 -14.5 -35.5t-35.5 -14.5h-1800zM1650 1900 q-21 0 -35.5 14.5t-14.5 35.5v450l500 -500h-450zM820 1607v155l-151 88l151 84v154l-340 -197v-79zM880 1607l340 205v79l-340 197v-154l151 -84l-151 -88v-155zM901 500l-101 100v200h100v-200h100v400h100v-400l-99 -100h-100zM1200 800v100l100 100h200v-100h-200v-100 h-100zM1300 700v100h100v-100h-100zM1200 500v100h200v100h100v-100l-100 -100h-200z" />
<glyph unicode="&#xe089;" d="M250 0q-21 0 -35.5 14.5t-14.5 35.5v2300q0 21 14.5 35.5t35.5 14.5h1250v-550q0 -21 14.5 -35.5t35.5 -14.5h550v-700h-1400q-27 0 -50 -13.5t-36.5 -36.5t-13.5 -50v-500q0 -41 29.5 -70.5t70.5 -29.5h1400v-350q0 -21 -14.5 -35.5t-35.5 -14.5h-1800zM1650 1900 q-21 0 -35.5 14.5t-14.5 35.5v450l500 -500h-450zM820 1607v155l-151 88l151 84v154l-340 -197v-79zM880 1607l340 205v79l-340 197v-154l151 -84l-151 -88v-155zM800 500v500h200l100 -100v-200l-100 -100h-100v-100h-100zM1200 500v500h100v-200h100v200h100v-500h-100 v200h-100v-200h-100zM1600 500v500h200l100 -100v-200l-100 -100h-100v-100h-100zM900 700h100v200h-100v-200zM1700 700h100v200h-100v-200z" />
<glyph unicode="&#xe090;" d="M250 0q-21 0 -35.5 14.5t-14.5 35.5v2300q0 21 14.5 35.5t35.5 14.5h1250v-550q0 -21 14.5 -35.5t35.5 -14.5h550v-700h-1400q-27 0 -50 -13.5t-36.5 -36.5t-13.5 -50v-500q0 -41 29.5 -70.5t70.5 -29.5h1400v-350q0 -21 -14.5 -35.5t-35.5 -14.5h-1800zM1650 1900 q-21 0 -35.5 14.5t-14.5 35.5v450l500 -500h-450zM820 1607v155l-151 88l151 84v154l-340 -197v-79zM880 1607l340 205v79l-340 197v-154l151 -84l-151 -88v-155zM800 800v200h100v-200h-100zM1000 800v200h100v-200h-100zM1200 500v500h100v-200h100v200h100v-500h-100v200 h-100v-200h-100zM1700 500v400h-100v100h300v-100h-100v-400h-100zM2000 500v500h100v-100h100v100h100v-500h-100v300h-100v-300h-100zM900 700v100h100v-100h-100zM800 500v200h100v-200h-100zM1000 500v200h100v-200h-100z" />
<glyph unicode="&#xe091;" d="M250 0q-21 0 -35.5 14.5t-14.5 35.5v2300q0 21 14.5 35.5t35.5 14.5h1250v-550q0 -21 14.5 -35.5t35.5 -14.5h550v-700h-1400q-27 0 -50 -13.5t-36.5 -36.5t-13.5 -50v-500q0 -41 29.5 -70.5t70.5 -29.5h1400v-350q0 -21 -14.5 -35.5t-35.5 -14.5h-1800zM1650 1900 q-21 0 -35.5 14.5t-14.5 35.5v450l500 -500h-450zM820 1607v155l-151 88l151 84v154l-340 -197v-79zM880 1607l340 205v79l-340 197v-154l151 -84l-151 -88v-155zM800 500v500h100v-200h100v200h100v-500h-100v200h-100v-200h-100zM1300 500v400h-100v100h300v-100h-100 v-400h-100zM1600 500v500h100v-100h100v100h100v-500h-100v300h-100v-300h-100z" />
<glyph unicode="&#xe092;" d="M250 0q-21 0 -35.5 14.5t-14.5 35.5v2300q0 21 14.5 35.5t35.5 14.5h1250v-550q0 -21 14.5 -35.5t35.5 -14.5h550v-700h-1400q-27 0 -50 -13.5t-36.5 -36.5t-13.5 -50v-500q0 -41 29.5 -70.5t70.5 -29.5h1400v-350q0 -21 -14.5 -35.5t-35.5 -14.5h-1800zM1650 1900 q-21 0 -35.5 14.5t-14.5 35.5v450l500 -500h-450zM820 1607v155l-151 88l151 84v154l-340 -197v-79zM880 1607l340 205v79l-340 197v-154l151 -84l-151 -88v-155zM800 500v500h100v-200h100v200h100v-500h-100v200h-100v-200h-100zM1300 500v400h-100v100h300v-100h-100 v-400h-100zM1600 500v500h100v-100h100v100h100v-500h-100v300h-100v-300h-100zM2100 500l-100 100v400h100v-400h200v-100h-200z" />
<glyph unicode="&#xe093;" d="M250 0q-21 0 -35.5 14.5t-14.5 35.5v2300q0 21 14.5 35.5t35.5 14.5h1250v-550q0 -21 14.5 -35.5t35.5 -14.5h550v-700h-1400q-27 0 -50 -13.5t-36.5 -36.5t-13.5 -50v-500q0 -41 29.5 -70.5t70.5 -29.5h1400v-350q0 -21 -14.5 -35.5t-35.5 -14.5h-1800zM1650 1900 q-21 0 -35.5 14.5t-14.5 35.5v450l500 -500h-450zM820 1607v155l-151 88l151 84v154l-340 -197v-79zM880 1607l340 205v79l-340 197v-154l151 -84l-151 -88v-155zM800 500v400l100 100h100l100 -100v-400h-100v100h-100v-100h-100zM1200 800v100l100 100h200v-100h-200v-100 h-100zM1600 500v500h200l100 -100v-200l-100 -100h-100v-100h-100zM900 700h100v200h-100v-200zM1700 700h100v200h-100v-200zM1300 700v100h100v-100h-100zM1200 500v100h200v100h100v-100l-100 -100h-200z" />
<glyph unicode="&#xe094;" d="M250 0q-21 0 -35.5 14.5t-14.5 35.5v2300q0 21 14.5 35.5t35.5 14.5h1250v-550q0 -21 14.5 -35.5t35.5 -14.5h550v-700h-1400q-27 0 -50 -13.5t-36.5 -36.5t-13.5 -50v-500q0 -41 29.5 -70.5t70.5 -29.5h1400v-350q0 -21 -14.5 -35.5t-35.5 -14.5h-1800zM1650 1900 q-21 0 -35.5 14.5t-14.5 35.5v450l500 -500h-450zM820 1607v155l-151 88l151 84v154l-340 -197v-79zM880 1607l340 205v79l-340 197v-154l151 -84l-151 -88v-155zM900 500l-100 100v300l100 100h200v-100h-200v-300h200v-100h-200zM1300 500l-100 100v300l100 100h200v-100 h-200v-100h200v-100h-200v-100h200v-100h-200zM1600 500v500h200l100 -100v-200h-100v200h-100v-200l100 -100h-100v-100h-100zM1800 500v100h100v-100h-100z" />
<glyph unicode="&#xe095;" d="M250 0q-21 0 -35.5 14.5t-14.5 35.5v2300q0 21 14.5 35.5t35.5 14.5h1250v-550q0 -21 14.5 -35.5t35.5 -14.5h550v-700h-1400q-27 0 -50 -13.5t-36.5 -36.5t-13.5 -50v-500q0 -41 29.5 -70.5t70.5 -29.5h1400v-350q0 -21 -14.5 -35.5t-35.5 -14.5h-1800zM1650 1900 q-21 0 -35.5 14.5t-14.5 35.5v450l500 -500h-450zM820 1607v155l-151 88l151 84v154l-340 -197v-79zM880 1607l340 205v79l-340 197v-154l151 -84l-151 -88v-155zM900 500l-100 100v200h100v-200h100v400h100v-400l-100 -100h-100zM1200 800v100l100 100h200v-100h-200v-100 h-100zM1600 500v500h200l100 -100v-200l-100 -100h-100v-100h-100zM1700 700h100v200h-100v-200zM1300 700v100h100v-100h-100zM1200 500v100h200v100h100v-100l-100 -100h-200z" />
<glyph unicode="&#xe096;" d="M250 0q-21 0 -35.5 14.5t-14.5 35.5v2300q0 21 14.5 35.5t35.5 14.5h1250v-550q0 -21 14.5 -35.5t35.5 -14.5h550v-700h-1400q-27 0 -50 -13.5t-36.5 -36.5t-13.5 -50v-500q0 -41 29.5 -70.5t70.5 -29.5h1400v-350q0 -21 -14.5 -35.5t-35.5 -14.5h-1800zM1650 1900 q-21 0 -35.5 14.5t-14.5 35.5v450l500 -500h-450zM820 1607v155l-151 88l151 84v154l-340 -197v-79zM880 1607l340 205v79l-340 197v-154l151 -84l-151 -88v-155zM900 500l-100 100v300l100 100h200v-100h-200v-300h200v-100h-200zM1200 500v400l101 100h199v-100h-200v-100 h200v-100h-200v-200h-100zM1600 500v500h100v-100h100v100h100v-500h-100v300h-100v-300h-100z" />
<glyph unicode="&#xe097;" d="M250 0q-21 0 -35.5 14.5t-14.5 35.5v2300q0 21 14.5 35.5t35.5 14.5h1250v-550q0 -21 14.5 -35.5t35.5 -14.5h550v-700h-1400q-27 0 -50 -13.5t-36.5 -36.5t-13.5 -50v-500q0 -41 29.5 -70.5t70.5 -29.5h1400v-350q0 -21 -14.5 -35.5t-35.5 -14.5h-1800zM1650 1900 q-21 0 -35.5 14.5t-14.5 35.5v450l500 -500h-450zM820 1607v155l-151 88l151 84v154l-340 -197v-79zM880 1607l340 205v79l-340 197v-154l151 -84l-151 -88v-155zM800 500v400l100 100h100l100 -100v-400h-100v100h-100v-100h-100zM1200 800v100l100 100h200v-100h-200v-100 h-100zM1600 500v500h200l100 -100v-200l-100 -100h-100v-100h-100zM2000 800v200h100v-200h-100zM2200 800v200h100v-200h-100zM900 700h100v200h-100v-200zM1700 700h100v200h-100v-200zM1300 700v100h100v-100h-100zM2100 700v100h100v-100h-100zM1200 500v100h200v100 h100v-100l-100 -100h-200zM2000 500v200h100v-200h-100zM2200 500v200h100v-200h-100z" />
<glyph unicode="&#xe098;" d="M250 0q-21 0 -35.5 14.5t-14.5 35.5v2300q0 21 14.5 35.5t35.5 14.5h1250v-550q0 -21 14.5 -35.5t35.5 -14.5h550v-700h-1400q-27 0 -50 -13.5t-36.5 -36.5t-13.5 -50v-500q0 -41 29.5 -70.5t70.5 -29.5h1400v-350q0 -21 -14.5 -35.5t-35.5 -14.5h-1800zM1650 1900 q-21 0 -35.5 14.5t-14.5 35.5v450l500 -500h-450zM820 1607v155l-151 88l151 84v154l-340 -197v-79zM880 1607l340 205v79l-340 197v-154l151 -84l-151 -88v-155zM800 500v500h200l100 -100v-200h-100v200h-100v-200l100 -100h-100v-100h-100zM1200 800v100l100 100h200 v-100h-200v-100h-100zM1600 800v100l100 100h200v-100h-200v-100h-100zM1300 700v100h100v-100h-100zM1700 700v100h100v-100h-100zM1200 500v100h200v100h100v-100l-100 -100h-200zM1600 500v100h200v100h100v-100l-100 -100h-200zM1000 500v100h100v-100h-100z" />
<glyph unicode="&#xe099;" d="M250 0q-21 0 -35.5 14.5t-14.5 35.5v2300q0 21 14.5 35.5t35.5 14.5h1250v-550q0 -21 14.5 -35.5t35.5 -14.5h550v-700h-1400q-27 0 -50 -13.5t-36.5 -36.5t-13.5 -50v-500q0 -41 29.5 -70.5t70.5 -29.5h1400v-350q0 -21 -14.5 -35.5t-35.5 -14.5h-1800zM1650 1900 q-21 0 -35.5 14.5t-14.5 35.5v450l500 -500h-450zM820 1607v155l-151 88l151 84v154l-340 -197v-79zM880 1607l340 205v79l-340 197v-154l151 -84l-151 -88v-155zM900 500l-100 100v300l100 100h200v-100h-200v-300h200v-100h-200zM1200 800v100l100 100h200v-100h-200v-100 h-100zM1600 500v500h200l100 -100v-200h-100v200h-100v-200l100 -100h-100v-100h-100zM1300 700v100h100v-100h-100zM1200 500v100h200v100h100v-100l-100 -100h-200zM1800 500v100h100v-100h-100z" />
<glyph unicode="&#xe100;" d="M250 0q-21 0 -35.5 14.5t-14.5 35.5v2300q0 21 14.5 35.5t35.5 14.5h1250v-550q0 -21 14.5 -35.5t35.5 -14.5h550v-700h-1400q-27 0 -50 -13.5t-36.5 -36.5t-13.5 -50v-500q0 -41 29.5 -70.5t70.5 -29.5h1400v-350q0 -21 -14.5 -35.5t-35.5 -14.5h-1800zM1650 1900 q-21 0 -35.5 14.5t-14.5 35.5v450l500 -500h-450zM820 1607v155l-151 88l151 84v154l-340 -197v-79zM880 1607l340 205v79l-340 197v-154l151 -84l-151 -88v-155zM900 500l-100 100v400h100v-400h200v-100h-200zM1300 500l-100 100v300l100 100h200v-100h-200v-100h200v-100 h-200v-100h200v-100h-200zM1600 800v100l100 100h200v-100h-200v-100h-100zM2000 800v100l100 100h200v-100h-200v-100h-100zM1700 700v100h100v-100h-100zM2100 700v100h100v-100h-100zM1600 500v100h200v100h100v-100l-100 -100h-200zM2000 500v100h200v100h100v-100 l-100 -100h-200z" />
<glyph unicode="&#xe101;" d="M250 0q-21 0 -35.5 14.5t-14.5 35.5v2300q0 21 14.5 35.5t35.5 14.5h1250v-550q0 -21 14.5 -35.5t35.5 -14.5h550v-700h-1400q-27 0 -50 -13.5t-36.5 -36.5t-13.5 -50v-500q0 -41 29.5 -70.5t70.5 -29.5h1400v-350q0 -21 -14.5 -35.5t-35.5 -14.5h-1800zM1650 1900 q-21 0 -35.5 14.5t-14.5 35.5v450l500 -500h-450zM650 1500h200v50l-50 25v425h100q17 0 25 -0.5t20 -3t17 -7.5t9 -14.5t4 -24.5h25v150h-500v-150h25q0 15 4 24.5t9 14.5t17 7.5t20 3t25 0.5h100v-425l-50 -25v-50zM900 500l-100 100v300l100 100h100l100 -100v-300 l-100 -100h-100zM1300 500v400h-100v100h300v-100h-100v-400h-100zM1600 500v400l101 100h199v-100h-200v-100h200v-100h-200v-200h-100zM900 600h100v300h-100v-300z" />
<glyph unicode="&#xe102;" d="M250 0q-21 0 -35.5 14.5t-14.5 35.5v2300q0 21 14.5 35.5t35.5 14.5h1250v-550q0 -21 14.5 -35.5t35.5 -14.5h550v-700h-1400q-27 0 -50 -13.5t-36.5 -36.5t-13.5 -50v-500q0 -41 29.5 -70.5t70.5 -29.5h1400v-350q0 -21 -14.5 -35.5t-35.5 -14.5h-1800zM1650 1900 q-21 0 -35.5 14.5t-14.5 35.5v450l500 -500h-450zM650 1500h200v50l-50 25v425h100q17 0 25 -0.5t20 -3t17 -7.5t9 -14.5t4 -24.5h25v150h-500v-150h25q0 15 4 24.5t9 14.5t17 7.5t20 3t25 0.5h100v-425l-50 -25v-50zM900 500v400h-100v100h300v-100h-100v-400h-100z M1300 500v400h-100v100h300v-100h-100v-400h-100zM1600 500v400l101 100h199v-100h-200v-100h200v-100h-200v-200h-100z" />
<glyph unicode="&#xe103;" d="M250 0q-21 0 -35.5 14.5t-14.5 35.5v2300q0 21 14.5 35.5t35.5 14.5h1250v-550q0 -21 14.5 -35.5t35.5 -14.5h550v-700h-1400q-27 0 -50 -13.5t-36.5 -36.5t-13.5 -50v-500q0 -41 29.5 -70.5t70.5 -29.5h1400v-350q0 -21 -14.5 -35.5t-35.5 -14.5h-1800zM1650 1900 q-21 0 -35.5 14.5t-14.5 35.5v450l500 -500h-450zM650 1500h200v50l-50 25v425h100q17 0 25 -0.5t20 -3t17 -7.5t9 -14.5t4 -24.5h25v150h-500v-150h25q0 15 4 24.5t9 14.5t17 7.5t20 3t25 0.5h100v-425l-50 -25v-50zM800 500v400l101 100h199v-100h-200v-100h200v-100h-200 v-200h-100zM1300 500l-100 100v300l100 100h100l100 -100v-300l-100 -100h-100zM1600 500v500h200v-100h-100v-400h-100zM1300 600h100v300h-100v-300zM1800 500v400h100v-400h-100z" />
<glyph unicode="&#xe104;" d="M250 0q-21 0 -35.5 14.5t-14.5 35.5v2300q0 21 14.5 35.5t35.5 14.5h1250v-550q0 -21 14.5 -35.5t35.5 -14.5h550v-700h-1400q-27 0 -50 -13.5t-36.5 -36.5t-13.5 -50v-500q0 -41 29.5 -70.5t70.5 -29.5h1400v-350q0 -21 -14.5 -35.5t-35.5 -14.5h-1800zM1650 1900 q-21 0 -35.5 14.5t-14.5 35.5v450l500 -500h-450zM650 1500h200v50l-50 25v425h100q17 0 25 -0.5t20 -3t17 -7.5t9 -14.5t4 -24.5h25v150h-500v-150h25q0 15 4 24.5t9 14.5t17 7.5t20 3t25 0.5h100v-425l-50 -25v-50zM800 500v400l101 100h199v-100h-200v-100h200v-100h-200 v-200h-100zM1200 500v500h200v-100h-100v-400h-100zM1700 500v400h-100v100h300v-100h-100v-400h-100zM1400 500v400h100v-400h-100z" />
<glyph unicode="&#xe105;" d="M250 0q-21 0 -35.5 14.5t-14.5 35.5v2300q0 21 14.5 35.5t35.5 14.5h1250v-550q0 -21 14.5 -35.5t35.5 -14.5h550v-700h-1400q-27 0 -50 -13.5t-36.5 -36.5t-13.5 -50v-500q0 -41 29.5 -70.5t70.5 -29.5h1400v-350q0 -21 -14.5 -35.5t-35.5 -14.5h-1800zM1650 1900 q-21 0 -35.5 14.5t-14.5 35.5v450l500 -500h-450zM650 1500h200v50l-50 25v425h100q17 0 25 -0.5t20 -3t17 -7.5t9 -14.5t4 -24.5h25v150h-500v-150h25q0 15 4 24.5t9 14.5t17 7.5t20 3t25 0.5h100v-425l-50 -25v-50zM900 500l-100 100v300l100 100h200v-100h-200v-100h200 v-100h-200v-100h200v-100h-200zM1300 500l-100 100v300l100 100h100l100 -100v-300l-100 -100h-100zM1700 500v400h-100v100h300v-100h-100v-400h-100zM1300 600h100v300h-100v-300z" />
<glyph unicode="&#xe106;" d="M250 0q-21 0 -35.5 14.5t-14.5 35.5v2300q0 21 14.5 35.5t35.5 14.5h1250v-550q0 -21 14.5 -35.5t35.5 -14.5h550v-700h-1400q-27 0 -50 -13.5t-36.5 -36.5t-13.5 -50v-500q0 -41 29.5 -70.5t70.5 -29.5h1400v-350q0 -21 -14.5 -35.5t-35.5 -14.5h-1800zM1650 1900 q-21 0 -35.5 14.5t-14.5 35.5v450l500 -500h-450zM650 1500h200v50l-50 25v425h100q17 0 25 -0.5t20 -3t17 -7.5t9 -14.5t4 -24.5h25v150h-500v-150h25q0 15 4 24.5t9 14.5t17 7.5t20 3t25 0.5h100v-425l-50 -25v-50zM800 500v500h100v-300h100v300h100v-500h-100v100h-100 v-100h-100zM1300 500l-100 100v300l100 100h100l100 -100v-300l-100 -100h-100zM1600 500v400l101 100h199v-100h-200v-100h200v-100h-200v-200h-100zM2000 500v400l101 100h199v-100h-200v-100h200v-100h-200v-200h-100zM1300 600h100v300h-100v-300z" />
<glyph unicode="&#xe107;" d="M250 0q-21 0 -35.5 14.5t-14.5 35.5v2300q0 21 14.5 35.5t35.5 14.5h1250v-550q0 -21 14.5 -35.5t35.5 -14.5h550v-700h-1400q-27 0 -50 -13.5t-36.5 -36.5t-13.5 -50v-500q0 -41 29.5 -70.5t70.5 -29.5h1400v-350q0 -21 -14.5 -35.5t-35.5 -14.5h-1800zM1650 1900 q-21 0 -35.5 14.5t-14.5 35.5v450l500 -500h-450zM1000 2200h200v100h150v50h-200v-50h-150v-100zM1000 2000h200v100h150v50h-200v-50h-150v-100zM1000 1800h200v100h150v50h-200v-50h-150v-100zM1000 1600h200v100h150v50h-200v-50h-150v-100zM1000 1400h200v100h150v50 h-200v-50h-150v-100zM1000 1200h200v100h150v50h-200v-50h-150v-100zM1000 800v100h-200v100h200l100 -100v-100h-100zM1200 500v500h100v-500h-100zM1400 500v500h200l100 -100v-200l-100 -100h-100v-100h-100zM1500 700h100v200h-100v-200zM900 700v100h100v-100h-100z M900 500l-100 100v100h100v-100h200v-100h-200z" />
<glyph unicode="&#xe108;" d="M250 0q-21 0 -35.5 14.5t-14.5 35.5v2300q0 21 14.5 35.5t35.5 14.5h1250v-550q0 -21 14.5 -35.5t35.5 -14.5h550v-700h-1400q-27 0 -50 -13.5t-36.5 -36.5t-13.5 -50v-500q0 -41 29.5 -70.5t70.5 -29.5h1400v-350q0 -21 -14.5 -35.5t-35.5 -14.5h-1800zM1650 1900 q-21 0 -35.5 14.5t-14.5 35.5v450l500 -500h-450zM1000 2200h200v100h150v50h-200v-50h-150v-100zM1000 2000h200v100h150v50h-200v-50h-150v-100zM1000 1800h200v100h150v50h-200v-50h-150v-100zM1000 1600h200v100h150v50h-200v-50h-150v-100zM1000 1400h200v100h150v50 h-200v-50h-150v-100zM1000 1200h200v100h150v50h-200v-50h-150v-100zM1000 800v100h-200v100h200l100 -100v-100h-100zM1200 500v500h100v-500h-100zM1400 500v500h200l100 -100v-200l-100 -100h-100v-100h-100zM1800 800v200h100v-200h-100zM2000 800v200h100v-200h-100z M1500 700h100v200h-100v-200zM900 700v100h100v-100h-100zM1900 700v100h100v-100h-100zM900 500l-100 100v100h100v-100h200v-100h-200zM1800 500v200h100v-200h-100zM2000 500v200h100v-200h-100z" />
<glyph unicode="&#xe109;" d="M250 0q-21 0 -35.5 14.5t-14.5 35.5v2300q0 21 14.5 35.5t35.5 14.5h1250v-550q0 -21 14.5 -35.5t35.5 -14.5h550v-700h-1400q-27 0 -50 -13.5t-36.5 -36.5t-13.5 -50v-500q0 -41 29.5 -70.5t70.5 -29.5h1400v-350q0 -21 -14.5 -35.5t-35.5 -14.5h-1800zM1650 1900 q-21 0 -35.5 14.5t-14.5 35.5v450l500 -500h-450zM1000 2200h200v100h150v50h-200v-50h-150v-100zM1000 2000h200v100h150v50h-200v-50h-150v-100zM1000 1800h200v100h150v50h-200v-50h-150v-100zM1000 1600h200v100h150v50h-200v-50h-150v-100zM1000 1400h200v100h150v50 h-200v-50h-150v-100zM1000 1200h200v100h150v50h-200v-50h-150v-100zM800 500v500h200l100 -100v-200h-100v200h-100v-200l100 -100h-100v-100h-100zM1200 500v400l100 100h100l100 -100v-400h-100v100h-100v-100h-100zM1600 500v500h200l100 -100v-200h-100v200h-100v-200 l100 -100h-100v-100h-100zM1300 700h100v200h-100v-200zM1000 500v100h100v-100h-100zM1800 500v100h100v-100h-100z" />
<glyph unicode="&#xe110;" d="M250 0q-21 0 -35.5 14.5t-14.5 35.5v2300q0 21 14.5 35.5t35.5 14.5h1250v-550q0 -21 14.5 -35.5t35.5 -14.5h550v-700h-1400q-27 0 -50 -13.5t-36.5 -36.5t-13.5 -50v-500q0 -41 29.5 -70.5t70.5 -29.5h1400v-350q0 -21 -14.5 -35.5t-35.5 -14.5h-1800zM1650 1900 q-21 0 -35.5 14.5t-14.5 35.5v450l500 -500h-450zM1000 2200h200v100h150v50h-200v-50h-150v-100zM1000 2000h200v100h150v50h-200v-50h-150v-100zM1000 1800h200v100h150v50h-200v-50h-150v-100zM1000 1600h200v100h150v50h-200v-50h-150v-100zM1000 1400h200v100h150v50 h-200v-50h-150v-100zM1000 1200h200v100h150v50h-200v-50h-150v-100zM900 500v400h-100v100h300v-100h-100v-400h-100zM1200 500v400l100 100h100l100 -100v-400h-100v100h-100v-100h-100zM1600 500v500h200l100 -100v-200h-100v200h-100v-200l100 -100h-100v-100h-100z M2000 500v500h300v-100h-200v-300h100v200h100v-300h-300zM1300 700h100v200h-100v-200zM1800 500v100h100v-100h-100z" />
<glyph unicode="&#xe111;" d="M250 0q-21 0 -35.5 14.5t-14.5 35.5v2300q0 21 14.5 35.5t35.5 14.5h1250v-550q0 -21 14.5 -35.5t35.5 -14.5h550v-700h-1400q-27 0 -50 -13.5t-36.5 -36.5t-13.5 -50v-500q0 -41 29.5 -70.5t70.5 -29.5h1400v-350q0 -21 -14.5 -35.5t-35.5 -14.5h-1800zM1650 1900 q-21 0 -35.5 14.5t-14.5 35.5v450l500 -500h-450zM1000 2200h200v100h150v50h-200v-50h-150v-100zM1000 2000h200v100h150v50h-200v-50h-150v-100zM1000 1800h200v100h150v50h-200v-50h-150v-100zM1000 1600h200v100h150v50h-200v-50h-150v-100zM1000 1400h200v100h150v50 h-200v-50h-150v-100zM1000 1200h200v100h150v50h-200v-50h-150v-100zM800 800v100l100 100h200v-100h-200v-100h-100zM1200 500v500h100v-500h-100zM1500 500v400h-100v100h300v-100h-100v-400h-100zM1800 800v200h100v-200h-100zM2000 800v200h100v-200h-100zM900 700v100 h100v-100h-100zM1900 700v100h100v-100h-100zM800 500v100h200v100h100v-100l-100 -100h-200zM1800 500v200h100v-200h-100zM2000 500v200h100v-200h-100z" />
<glyph unicode="&#xe112;" d="M250 0q-21 0 -35.5 14.5t-14.5 35.5v2300q0 21 14.5 35.5t35.5 14.5h1250v-550q0 -21 14.5 -35.5t35.5 -14.5h550v-700h-1400q-27 0 -50 -13.5t-36.5 -36.5t-13.5 -50v-500q0 -41 29.5 -70.5t70.5 -29.5h1400v-350q0 -21 -14.5 -35.5t-35.5 -14.5h-1800zM1650 1900 q-21 0 -35.5 14.5t-14.5 35.5v450l500 -500h-450zM1000 2200h200v100h150v50h-200v-50h-150v-100zM1000 2000h200v100h150v50h-200v-50h-150v-100zM1000 1800h200v100h150v50h-200v-50h-150v-100zM1000 1600h200v100h150v50h-200v-50h-150v-100zM1000 1400h200v100h150v50 h-200v-50h-150v-100zM1000 1200h200v100h150v50h-200v-50h-150v-100zM800 500v500h200l100 -100v-300l-100 -100h-200zM1300 500l-100 100v300l100 100h200v-100h-200v-100h200v-100h-200v-100h200v-100h-200zM1600 500v500h200l100 -100v-100l-50 -50l50 -50v-100 l-100 -100h-200zM900 600h100v300h-100v-300zM1700 800h100v100h-100v-100zM1700 600h100v100h-100v-100z" />
<glyph unicode="&#xe113;" d="M1500 1850q0 -21 14.5 -35.5t35.5 -14.5h550v-700h-1400q-27 0 -50 -13.5t-36.5 -36.5t-13.5 -50v-500q0 -41 29.5 -70.5t70.5 -29.5h1400v-350q0 -21 -14.5 -35.5t-35.5 -14.5h-1800q-21 0 -35.5 14.5t-14.5 35.5v2300q0 21 14.5 35.5t35.5 14.5h1250v-550zM1650 1900 q-21 0 -35.5 14.5t-14.5 35.5v450l500 -500h-450zM1350 2300v50h-200v-50h-150v-100h200v100h150zM1350 2100v50h-200v-50h-150v-100h200v100h150zM1350 1900v50h-200v-50h-150v-100h200v100h150zM1350 1700v50h-200v-50h-150v-100h200v100h150zM1350 1500v50h-200v-50h-150 v-100h200v100h150zM1350 1300v50h-200v-50h-150v-100h200v100h150zM901 700h99v200h-200v100h300v-300h-99v-100h-100v100zM1500 900v-100h-100v100h-200v100h200zM1400 800v-100h-100v100h100zM1200 700h100v-100h200v-100h-200l-100 100v100zM801 500v100h100v-100h-100z " />
<glyph unicode="&#xe114;" d="M250 0q-21 0 -35.5 14.5t-14.5 35.5v2300q0 21 14.5 35.5t35.5 14.5h1250v-550q0 -21 14.5 -35.5t35.5 -14.5h550v-700h-1400q-27 0 -50 -13.5t-36.5 -36.5t-13.5 -50v-500q0 -41 29.5 -70.5t70.5 -29.5h1400v-350q0 -21 -14.5 -35.5t-35.5 -14.5h-1800zM1650 1900 q-21 0 -35.5 14.5t-14.5 35.5v450l500 -500h-450zM1000 2200h200v100h150v50h-200v-50h-150v-100zM1000 2000h200v100h150v50h-200v-50h-150v-100zM1000 1800h200v100h150v50h-200v-50h-150v-100zM1000 1600h200v100h150v50h-200v-50h-150v-100zM1000 1400h200v100h150v50 h-200v-50h-150v-100zM1000 1200h200v100h150v50h-200v-50h-150v-100zM800 500v500h200l100 -100v-200l-100 -100h-100v-100h-100zM1200 500v500h100v-200h100v-100h-100v-200h-100zM1400 800v200h100v-200h-100zM1600 500v500h300v-100h-200v-300h100v200h100v-300h-300z M900 700h100v200h-100v-200zM1400 500v200h100v-200h-100z" />
<glyph unicode="&#xe115;" d="M250 0q-21 0 -35.5 14.5t-14.5 35.5v2300q0 21 14.5 35.5t35.5 14.5h1250v-550q0 -21 14.5 -35.5t35.5 -14.5h550v-700h-1400q-27 0 -50 -13.5t-36.5 -36.5t-13.5 -50v-500q0 -41 29.5 -70.5t70.5 -29.5h1400v-350q0 -21 -14.5 -35.5t-35.5 -14.5h-1800zM1650 1900 q-21 0 -35.5 14.5t-14.5 35.5v450l500 -500h-450zM1000 2200h200v100h150v50h-200v-50h-150v-100zM1000 2000h200v100h150v50h-200v-50h-150v-100zM1000 1800h200v100h150v50h-200v-50h-150v-100zM1000 1600h200v100h150v50h-200v-50h-150v-100zM1000 1400h200v100h150v50 h-200v-50h-150v-100zM1000 1200h200v100h150v50h-200v-50h-150v-100zM800 500v500h200l100 -100v-200h-100v200h-100v-200l100 -100h-100v-100h-100zM1200 500v500h200l100 -100v-200l-100 -100h-100v-100h-100zM1600 500v500h100v-100h100v100h100v-500h-100v300h-100v-300 h-100zM1300 700h100v200h-100v-200zM1000 500v100h100v-100h-100z" />
<glyph unicode="&#xe116;" d="M250 0q-21 0 -35.5 14.5t-14.5 35.5v2300q0 21 14.5 35.5t35.5 14.5h1250v-550q0 -21 14.5 -35.5t35.5 -14.5h550v-700h-1400q-27 0 -50 -13.5t-36.5 -36.5t-13.5 -50v-500q0 -41 29.5 -70.5t70.5 -29.5h1400v-350q0 -21 -14.5 -35.5t-35.5 -14.5h-1800zM1650 1900 q-21 0 -35.5 14.5t-14.5 35.5v450l500 -500h-450zM1000 2200h200v100h150v50h-200v-50h-150v-100zM1000 2000h200v100h150v50h-200v-50h-150v-100zM1000 1800h200v100h150v50h-200v-50h-150v-100zM1000 1600h200v100h150v50h-200v-50h-150v-100zM1000 1400h200v100h150v50 h-200v-50h-150v-100zM1000 1200h200v100h150v50h-200v-50h-150v-100zM900 500l-100 100v300l100 100h200v-100h-200v-300h200v-100h-200zM1200 500v500h200l100 -100v-100l-50 -50l50 -50v-100l-100 -100h-200zM1600 500v500h200l100 -100v-200h-100v200h-100v-200l100 -100 h-100v-100h-100zM1300 800h100v100h-100v-100zM1300 600h100v100h-100v-100zM1800 500v100h100v-100h-100z" />
<glyph unicode="&#xe117;" d="M250 0q-21 0 -35.5 14.5t-14.5 35.5v2300q0 21 14.5 35.5t35.5 14.5h1250v-550q0 -21 14.5 -35.5t35.5 -14.5h550v-700h-1400q-27 0 -50 -13.5t-36.5 -36.5t-13.5 -50v-500q0 -41 29.5 -70.5t70.5 -29.5h1400v-350q0 -21 -14.5 -35.5t-35.5 -14.5h-1800zM1650 1900 q-21 0 -35.5 14.5t-14.5 35.5v450l500 -500h-450zM1000 2200h200v100h150v50h-200v-50h-150v-100zM1000 2000h200v100h150v50h-200v-50h-150v-100zM1000 1800h200v100h150v50h-200v-50h-150v-100zM1000 1600h200v100h150v50h-200v-50h-150v-100zM1000 1400h200v100h150v50 h-200v-50h-150v-100zM1000 1200h200v100h150v50h-200v-50h-150v-100zM800 500v500h300v-100h-200v-300h100v200h100v-300h-300zM1400 800v100h-200v100h200l100 -100v-100h-100zM1300 700v100h100v-100h-100zM1300 500l-100 100v100h100v-100h200v-100h-200z" />
<glyph unicode="&#xe118;" d="M250 0q-21 0 -35.5 14.5t-14.5 35.5v2300q0 21 14.5 35.5t35.5 14.5h1250v-550q0 -21 14.5 -35.5t35.5 -14.5h550v-700h-1400q-41 0 -70.5 -29.5t-29.5 -70.5v-500q0 -41 29.5 -70.5t70.5 -29.5h1400v-350q0 -21 -14.5 -35.5t-35.5 -14.5h-1800zM1650 1900 q-21 0 -35.5 14.5t-14.5 35.5v450l500 -500h-450zM500 1700h700v300h-700v-300zM900 1800v100h200v-100h-200zM800 500v500h200l100 -100v-300l-100 -100h-200zM1200 500v500h100v-100h100v100h100v-500h-100v300h-100v-300h-100zM1700 500l-100 100v300l100 100h200v-100 h-200v-300h100v200h100v-300h-200zM900 600h100v300h-100v-300z" />
<glyph unicode="&#xe119;" d="M250 0q-21 0 -35.5 14.5t-14.5 35.5v2300q0 21 14.5 35.5t35.5 14.5h1250v-550q0 -21 14.5 -35.5t35.5 -14.5h550v-700h-1400q-41 0 -70.5 -29.5t-29.5 -70.5v-500q0 -41 29.5 -70.5t70.5 -29.5h1400v-350q0 -21 -14.5 -35.5t-35.5 -14.5h-1800zM1650 1900 q-21 0 -35.5 14.5t-14.5 35.5v450l500 -500h-450zM500 1700h700v300h-700v-300zM900 1800v100h200v-100h-200zM900 500l-100 100v300l100 100h200v-100h-200v-300h200v-100h-200zM1300 500l-100 100v400h100v-400h100v400h100v-400l-100 -100h-100zM1700 500l-100 100v300 l100 100h200v-100h-200v-100h200v-100h-200v-100h200v-100h-200z" />
<glyph unicode="&#xe120;" d="M250 0q-21 0 -35.5 14.5t-14.5 35.5v2300q0 21 14.5 35.5t35.5 14.5h1250v-550q0 -21 14.5 -35.5t35.5 -14.5h550v-700h-1400q-41 0 -70.5 -29.5t-29.5 -70.5v-500q0 -41 29.5 -70.5t70.5 -29.5h1400v-350q0 -21 -14.5 -35.5t-35.5 -14.5h-1800zM1650 1900 q-21 0 -35.5 14.5t-14.5 35.5v450l500 -500h-450zM500 1700h700v300h-700v-300zM900 1800v100h200v-100h-200zM800 500v500h200l100 -100v-100l-50 -50l50 -50v-100l-100 -100h-200zM1200 500v500h100v-500h-100zM1400 500v500h200v-100h-100v-400h-100zM900 800h100v100 h-100v-100zM1600 500v400h100v-400h-100zM900 600h100v100h-100v-100z" />
<glyph unicode="&#xe121;" d="M250 0q-21 0 -35.5 14.5t-14.5 35.5v2300q0 21 14.5 35.5t35.5 14.5h1250v-550q0 -21 14.5 -35.5t35.5 -14.5h550v-700h-1400q-41 0 -70.5 -29.5t-29.5 -70.5v-500q0 -41 29.5 -70.5t70.5 -29.5h1400v-350q0 -21 -14.5 -35.5t-35.5 -14.5h-1800zM1650 1900 q-21 0 -35.5 14.5t-14.5 35.5v450l500 -500h-450zM500 1700h700v300h-700v-300zM900 1800v100h200v-100h-200zM800 500v500h100v-500h-100zM1000 800v100l100 100h200v-100h-200v-100h-100zM1500 500l-100 100v300l100 100h100l100 -100v-300l-100 -100h-100zM1500 600h100 v300h-100v-300zM1100 700v100h100v-100h-100zM1000 500v100h200v100h100v-100l-100 -100h-200z" />
<glyph unicode="&#xe122;" d="M250 0q-21 0 -35.5 14.5t-14.5 35.5v2300q0 21 14.5 35.5t35.5 14.5h1250v-550q0 -21 14.5 -35.5t35.5 -14.5h550v-700h-1400q-41 0 -70.5 -29.5t-29.5 -70.5v-500q0 -41 29.5 -70.5t70.5 -29.5h1400v-350q0 -21 -14.5 -35.5t-35.5 -14.5h-1800zM1650 1900 q-21 0 -35.5 14.5t-14.5 35.5v450l500 -500h-450zM500 1700h700v300h-700v-300zM900 1800v100h200v-100h-200zM800 500v500h100v-200h100v200h100v-500h-100v200h-100v-200h-100zM1200 500v500h200l100 -100v-300l-100 -100h-200zM1600 500v400l101 100h199v-100h-200v-100 h200v-100h-200v-200h-100zM1300 600h100v300h-100v-300z" />
<glyph unicode="&#xe123;" d="M250 0q-21 0 -35.5 14.5t-14.5 35.5v2300q0 21 14.5 35.5t35.5 14.5h1250v-550q0 -21 14.5 -35.5t35.5 -14.5h550v-700h-1400q-41 0 -70.5 -29.5t-29.5 -70.5v-500q0 -41 29.5 -70.5t70.5 -29.5h1400v-350q0 -21 -14.5 -35.5t-35.5 -14.5h-1800zM1650 1900 q-21 0 -35.5 14.5t-14.5 35.5v450l500 -500h-450zM500 1700h700v300h-700v-300zM900 1800v100h200v-100h-200zM800 500v500h100v-400h100v-100h-200zM1000 600v400h100v-400h-100zM1300 500l-100 100v300l100 100h200v-100h-200v-300h200v-100h-200zM1600 500v500h200 l100 -100v-300l-100 -100h-200zM1700 600h100v300h-100v-300z" />
<glyph unicode="&#xe124;" d="M250 0q-21 0 -35.5 14.5t-14.5 35.5v2300q0 21 14.5 35.5t35.5 14.5h1250v-550q0 -21 14.5 -35.5t35.5 -14.5h550v-700h-1400q-41 0 -70.5 -29.5t-29.5 -70.5v-500q0 -41 29.5 -70.5t70.5 -29.5h1400v-350q0 -21 -14.5 -35.5t-35.5 -14.5h-1800zM1650 1900 q-21 0 -35.5 14.5t-14.5 35.5v450l500 -500h-450zM800 500v500h200l100 -100v-100l-50 -50l50 -50v-100l-100 -100h-200zM1200 500v400l100 100h100l100 -100v-400h-100v100h-100v-100h-100zM1600 500v500h100v-200h100v-100h-100v-200h-100zM1800 800v200h100v-200h-100z M900 800h100v100h-100v-100zM1300 700h100v200h-100v-200zM900 600h100v100h-100v-100zM1800 500v200h100v-200h-100z" />
<glyph unicode="&#xe125;" d="M250 0q-21 0 -35.5 14.5t-14.5 35.5v2300q0 21 14.5 35.5t35.5 14.5h1250v-550q0 -21 14.5 -35.5t35.5 -14.5h550v-700h-1400q-41 0 -70.5 -29.5t-29.5 -70.5v-500q0 -41 29.5 -70.5t70.5 -29.5h1400v-350q0 -21 -14.5 -35.5t-35.5 -14.5h-1800zM1650 1900 q-21 0 -35.5 14.5t-14.5 35.5v450l500 -500h-450zM900 500v400h-100v100h300v-100h-100v-400h-100zM1200 500v500h100v-100h100v100h100v-500h-100v300h-100v-300h-100zM1600 500v500h200l100 -100v-200l-100 -100h-100v-100h-100zM1700 700h100v200h-100v-200z" />
<glyph unicode="&#xe126;" d="M250 0q-21 0 -35.5 14.5t-14.5 35.5v2300q0 21 14.5 35.5t35.5 14.5h1250v-550q0 -21 14.5 -35.5t35.5 -14.5h550v-700h-1400q-41 0 -70.5 -29.5t-29.5 -70.5v-500q0 -41 29.5 -70.5t70.5 -29.5h1400v-350q0 -21 -14.5 -35.5t-35.5 -14.5h-1800zM1650 1900 q-21 0 -35.5 14.5t-14.5 35.5v450l500 -500h-450zM800 500v500h100v-500h-100zM1100 500l-100 100v300l100 100h200v-100h-200v-300h200v-100h-200zM1400 800v100l100 100h200v-100h-200v-100h-100zM1500 700v100h100v-100h-100zM1400 500v100h200v100h100v-100l-100 -100 h-200z" />
<glyph unicode="&#xe127;" d="M250 0q-21 0 -35.5 14.5t-14.5 35.5v2300q0 21 14.5 35.5t35.5 14.5h1250v-550q0 -21 14.5 -35.5t35.5 -14.5h550v-700h-1400q-41 0 -70.5 -29.5t-29.5 -70.5v-500q0 -41 29.5 -70.5t70.5 -29.5h1400v-350q0 -21 -14.5 -35.5t-35.5 -14.5h-1800zM1650 1900 q-21 0 -35.5 14.5t-14.5 35.5v450l500 -500h-450zM800 500v500h100v-100h100v100h100v-500h-100v300h-100v-300h-100zM1200 800v100l100 100h200v-100h-200v-100h-100zM1600 500v500h100v-500h-100zM1300 700v100h100v-100h-100zM1200 500v100h200v100h100v-100l-100 -100 h-200z" />
<glyph unicode="&#xe128;" d="M250 0q-21 0 -35.5 14.5t-14.5 35.5v2300q0 21 14.5 35.5t35.5 14.5h1250v-550q0 -21 14.5 -35.5t35.5 -14.5h550v-700h-1400q-41 0 -70.5 -29.5t-29.5 -70.5v-500q0 -41 29.5 -70.5t70.5 -29.5h1400v-350q0 -21 -14.5 -35.5t-35.5 -14.5h-1800zM1650 1900 q-21 0 -35.5 14.5t-14.5 35.5v450l500 -500h-450zM900 500l-100 100v300l100 100h200v-100h-200v-300h200v-100h-200zM1200 500v400l101 100h199v-100h-200v-100h200v-100h-200v-200h-100zM1700 500l-100 100v300l100 100h200v-100h-200v-300h100v200h100v-300h-200z" />
<glyph unicode="&#xe129;" d="M250 0q-21 0 -35.5 14.5t-14.5 35.5v2300q0 21 14.5 35.5t35.5 14.5h1250v-550q0 -21 14.5 -35.5t35.5 -14.5h550v-700h-1400q-41 0 -70.5 -29.5t-29.5 -70.5v-500q0 -41 29.5 -70.5t70.5 -29.5h1400v-350q0 -21 -14.5 -35.5t-35.5 -14.5h-1800zM1650 1900 q-21 0 -35.5 14.5t-14.5 35.5v450l500 -500h-450zM800 500v500h100v-500h-100zM1000 500v500h200v-100h-100v-400h-100zM1400 500v500h100v-500h-100zM1200 500v400h100v-400h-100z" />
<glyph unicode="&#xe130;" d="M250 0q-21 0 -35.5 14.5t-14.5 35.5v2300q0 21 14.5 35.5t35.5 14.5h1250v-550q0 -21 14.5 -35.5t35.5 -14.5h550v-700h-1400q-41 0 -70.5 -29.5t-29.5 -70.5v-500q0 -41 29.5 -70.5t70.5 -29.5h1400v-350q0 -21 -14.5 -35.5t-35.5 -14.5h-1800zM1650 1900 q-21 0 -35.5 14.5t-14.5 35.5v450l500 -500h-450zM800 500v500h200l100 -100v-200l-100 -100h-100v-100h-100zM1200 500v500h200l100 -100v-200h-100v200h-100v-200l100 -100h-100v-100h-100zM1600 500v400l101 100h199v-100h-200v-100h200v-100h-200v-200h-100zM900 700 h100v200h-100v-200zM1400 500v100h100v-100h-100z" />
<glyph unicode="&#xe131;" d="M250 0q-21 0 -35.5 14.5t-14.5 35.5v2300q0 21 14.5 35.5t35.5 14.5h1250v-550q0 -21 14.5 -35.5t35.5 -14.5h550v-700h-1400q-41 0 -70.5 -29.5t-29.5 -70.5v-500q0 -41 29.5 -70.5t70.5 -29.5h1400v-350q0 -21 -14.5 -35.5t-35.5 -14.5h-1800zM1650 1900 q-21 0 -35.5 14.5t-14.5 35.5v450l500 -500h-450zM820 1607v155l-151 88l151 84v154l-340 -197v-79zM880 1607l340 205v79l-340 197v-154l151 -84l-151 -88v-155zM900 500l-100 100v200h100v-200h100v400h100v-400l-100 -100h-100zM1200 800v100l100 100h200v-100h-200v-100 h-100zM1700 500l-100 100v300l100 100h100l100 -100v-300l-100 -100h-100zM2000 500v500h200v-100h-100v-400h-100zM1700 600h100v300h-100v-300zM2200 500v400h100v-400h-100zM1300 700v100h100v-100h-100zM1200 500v100h200v100h100v-100l-100 -100h-200z" />
<glyph unicode="&#xe132;" d="M250 0q-21 0 -35.5 14.5t-14.5 35.5v2300q0 21 14.5 35.5t35.5 14.5h1250v-550q0 -21 14.5 -35.5t35.5 -14.5h550v-700h-1400q-41 0 -70.5 -29.5t-29.5 -70.5v-500q0 -41 29.5 -70.5t70.5 -29.5h1400v-350q0 -21 -14.5 -35.5t-35.5 -14.5h-1800zM1650 1900 q-21 0 -35.5 14.5t-14.5 35.5v450l500 -500h-450zM820 1607v155l-151 88l151 84v154l-340 -197v-79zM880 1607l340 205v79l-340 197v-154l151 -84l-151 -88v-155zM800 800v100l100 100h200v-100h-200v-100h-100zM1200 500v500h100v-500h-100zM1500 500v400h-100v100h300 v-100h-100v-400h-100zM1900 500l-100 100v300l100 100h200v-100h-200v-100h200v-100h-200v-100h200v-100h-200zM900 700v100h100v-100h-100zM800 500v100h200v100h100v-100l-100 -100h-200z" />
<glyph unicode="&#xe133;" d="M250 0q-21 0 -35.5 14.5t-14.5 35.5v2300q0 21 14.5 35.5t35.5 14.5h1250v-550q0 -21 14.5 -35.5t35.5 -14.5h550v-700h-1400q-41 0 -70.5 -29.5t-29.5 -70.5v-500q0 -41 29.5 -70.5t70.5 -29.5h1400v-350q0 -21 -14.5 -35.5t-35.5 -14.5h-1800zM1650 1900 q-21 0 -35.5 14.5t-14.5 35.5v450l500 -500h-450zM820 1607v155l-151 88l151 84v154l-340 -197v-79zM880 1607l340 205v79l-340 197v-154l151 -84l-151 -88v-155zM800 800v200h100v-200h-100zM1000 800v200h100v-200h-100zM1200 500v400l100 100h100l100 -100v-400h-100v100 h-100v-100h-100zM1600 500v500h200l100 -100v-200l-100 -100h-100v-100h-100zM1300 700h100v200h-100v-200zM1700 700h100v200h-100v-200zM900 700v100h100v-100h-100zM800 500v200h100v-200h-100zM1000 500v200h100v-200h-100z" />
<glyph unicode="&#xe134;" d="M250 0q-21 0 -35.5 14.5t-14.5 35.5v2300q0 21 14.5 35.5t35.5 14.5h1250v-550q0 -21 14.5 -35.5t35.5 -14.5h550v-700h-1400q-41 0 -70.5 -29.5t-29.5 -70.5v-500q0 -41 29.5 -70.5t70.5 -29.5h1400v-350q0 -21 -14.5 -35.5t-35.5 -14.5h-1800zM1650 1900 q-21 0 -35.5 14.5t-14.5 35.5v450l500 -500h-450zM820 1607v155l-151 88l151 84v154l-340 -197v-79zM880 1607l340 205v79l-340 197v-154l151 -84l-151 -88v-155zM800 500v400l100 100h100l100 -100v-400h-100v100h-100v-100h-100zM1200 500v500h200l100 -100v-200 l-100 -100h-100v-100h-100zM1600 500v500h100v-500h-100zM900 700h100v200h-100v-200zM1300 700h100v200h-100v-200z" />
</font>
</defs>
</svg>
