<?xml version="1.0" standalone="no"?>
<!DOCTYPE svg PUBLIC "-//W3C//DTD SVG 1.1//EN" "http://www.w3.org/Graphics/SVG/1.1/DTD/svg11.dtd" >
<svg xmlns="http://www.w3.org/2000/svg">
<metadata>Generated by IcoMoon</metadata>
<defs>
<font id="jicons" horiz-adv-x="1024">
<font-face units-per-em="1024" ascent="960" descent="-64" />
<missing-glyph horiz-adv-x="1024" />
<glyph unicode="&#x20;" horiz-adv-x="512" d="" />
<glyph unicode="&#xe900;" glyph-name="guest" d="M512 640c-35.2 0-65.28-12.8-90.24-37.76s-37.76-55.040-37.76-90.24c0-35.2 12.8-65.28 37.76-90.24s55.040-37.76 90.24-37.76c35.2 0 65.28 12.8 90.24 37.76s37.76 55.040 37.76 90.24c0 35.2-12.8 65.28-37.76 90.24s-55.040 37.76-90.24 37.76v0zM512 352c-22.4 0-48-2.56-76.8-8.32-28.16-5.76-55.68-13.44-83.2-23.68s-49.92-23.68-68.48-40.32c-18.56-17.28-27.52-35.84-27.52-55.68v-96h512v96c0 19.84-8.96 38.4-27.52 55.68s-40.96 30.72-68.48 40.32c-27.52 10.24-55.040 17.92-83.2 23.68-28.8 5.76-54.4 8.32-76.8 8.32v0zM896 832h-256c0 26.24-8.32 51.2-21.76 71.68-4.48 6.4-10.24 12.8-16 18.56s-12.16 11.52-18.56 16c-20.48 13.44-45.44 21.76-71.68 21.76s-51.2-8.32-71.68-21.76c-13.44-8.96-25.6-21.12-34.56-34.56-13.44-20.48-21.76-45.44-21.76-71.68h-256c-70.4 0-128-57.6-128-128v-640c0-70.4 57.6-128 128-128h768c70.4 0 128 57.6 128 128v640c0 70.4-57.6 128-128 128zM512 896c35.2 0 64-28.8 64-64h-128c0 35.2 28.8 64 64 64zM960 64c0-35.2-28.8-64-64-64h-768c-35.2 0-64 28.8-64 64v640c0 35.2 28.8 64 64 64h768c35.2 0 64-28.8 64-64v-640z" />
<glyph unicode="&#xe901;" glyph-name="caddy-out" d="M384 32c0-53.12-42.88-96-96-96s-96 42.88-96 96 42.88 96 96 96c53.12 0 96-42.88 96-96zM832 32c0-53.12-42.88-96-96-96s-96 42.88-96 96 42.88 96 96 96c53.12 0 96-42.88 96-96zM634.24 448h11.52c29.44 0 46.080 19.2 53.12 28.16l3.2 5.12 53.12 96 124.16 224.64 61.44-33.92-181.12-313.6-0.64-0.64c-21.12-40.32-62.72-68.48-110.72-69.76v0h-310.4l-24.32-37.76-42.24-65.92c-8.96-21.76 14.080-24.32 14.080-24.32h610.56v-64h-611.2c-44.16 0-80 35.84-80 80 0 16 4.48 30.72 12.8 42.88l76.16 119.040-174.72 398.080h-119.040v64h160l196.48-448h277.76zM768.64 768l-224 192-224-192h127.36v-192h192v192z" />
<glyph unicode="&#xe902;" glyph-name="caddy-in" d="M384 32c0-53.12-42.88-96-96-96s-96 42.88-96 96 42.88 96 96 96c53.12 0 96-42.88 96-96zM832 32c0-53.12-42.88-96-96-96s-96 42.88-96 96 42.88 96 96 96c53.12 0 96-42.88 96-96zM634.24 448h11.52c29.44 0 46.080 19.2 53.12 28.16l3.2 5.12 53.12 96 124.16 224.64 61.44-33.92-181.12-313.6-0.64-0.64c-21.12-40.32-62.72-68.48-110.72-69.76v0h-310.4l-24.32-37.76-42.24-65.92c-8.96-21.76 14.080-24.32 14.080-24.32h610.56v-64h-611.2c-44.16 0-80 35.84-80 80 0 16 4.48 30.72 12.8 42.88l76.16 119.040-174.72 398.080h-119.040v64h160l196.48-448h277.76zM640 768v192h-192v-192h-127.36l224-192 224 192z" />
<glyph unicode="&#xe903;" glyph-name="bell-cross" d="M512 837.12l52.48-9.6c117.76-21.76 203.52-115.2 203.52-222.72v-284.8c0-76.16 33.92-145.28 87.040-192h-686.080c53.12 46.72 87.040 115.84 87.040 192v284.8c0 106.88 85.76 200.32 203.52 222.080l52.48 10.24zM576 960h-128v-69.76c-145.92-26.88-256-144.64-256-285.44v-284.8c0-106.24-85.76-192-192-192v-64h429.44c-5.12-11.52-8.32-24.32-8.32-37.76 0-49.92 40.96-90.24 90.88-90.24s90.24 40.32 90.24 90.24c0 13.44-3.2 26.24-8.32 37.76h430.080v64c-106.24 0-192 85.76-192 192v284.8c0 140.8-110.080 257.92-256 284.8v70.4zM704 352l-64-64-128 128-128-128-64 64 128 128-128 128 64 64 128-128 128 128 64-64-128-128 128-128z" />
<glyph unicode="&#xe904;" glyph-name="file-link" d="M767.36 960v0h-639.36v-576h64v512h512v-256h256v-640h-128v-64h192v768l-256.64 256zM768 704v165.12l165.76-165.12h-165.76zM576 320h-128v-64h128c70.4 0 128-57.6 128-128s-57.6-128-128-128h-128v-64h128c105.6 0 192 86.4 192 192s-86.4 192-192 192zM192 0c-70.4 0-128 57.6-128 128s57.6 128 128 128h128v64h-128c-105.6 0-192-86.4-192-192s86.4-192 192-192h128v64h-128zM192 160h384v-64h-384v64z" />
<glyph unicode="&#xe905;" glyph-name="lock2" d="M832 512h-64v177.92c0 134.4-97.28 256-231.68 268.8-151.68 14.72-280.32-105.6-280.32-254.72v-192h-64c-35.2 0-64-28.8-64-64v-448c0-35.2 28.8-64 64-64h640c35.2 0 64 28.8 64 64v448c0 35.2-28.8 64-64 64zM576 64h-128v256h128v-256zM640 640v-128h-256v184.96c0 56.96 33.28 112 87.040 128.64 88.32 27.52 168.96-37.76 168.96-121.6v-64z" />
<glyph unicode="&#xe906;" glyph-name="text" d="M192 640h640v-64h-640v64zM192 448h640v-64h-640v64zM192 256h384v-64h-384v64z" />
<glyph unicode="&#xe907;" glyph-name="unlock2" d="M704 896c-140.8 0-256-115.2-256-256v-128h-384c-35.2 0-64-28.8-64-64v-448c0-35.2 28.8-64 64-64h512c35.2 0 64 28.8 64 64v448c0 35.2-28.8 64-64 64v128c0 70.4 57.6 128 128 128s128-57.6 128-128v-128h128v128c0 140.8-115.2 256-256 256zM384 64h-128v256h128v-256z" />
<glyph unicode="&#xe908;" glyph-name="community" d="M99.84 301.44c-36.48 118.4-9.6 242.56 62.080 334.72-20.48 19.2-37.76 42.24-50.56 67.84-104.32-120.32-142.72-289.92-84.48-449.92 0.64-0.64 0.64-1.92 1.28-2.56 20.48 21.12 44.8 37.76 71.68 49.92zM533.76 771.2c115.84-24.32 216.32-103.040 264.96-217.6 20.48 5.76 40.96 10.24 63.36 10.24 7.68 0 15.36-1.28 23.040-2.56-0.64 1.28-0.64 2.56-1.28 3.2-58.24 159.36-197.76 264.96-355.2 290.56 4.48-17.28 7.68-35.84 7.68-54.4 0.64-10.24-1.28-19.84-2.56-29.44zM583.68 60.8c-58.88-21.12-119.68-25.6-177.92-17.92-7.040-28.16-18.56-54.4-35.2-77.44 78.080-15.36 161.28-11.52 241.92 17.92 80 28.8 145.28 78.72 195.84 139.52-28.16 7.040-54.4 19.84-77.44 36.48-39.68-42.24-88.96-77.44-147.2-98.56zM792.96 196.48l6.4-3.2c1.28-0.64 2.56-1.28 3.84-1.28 44.8-18.56 98.56-16.64 145.92 12.8 53.76 33.28 83.2 97.28 72.96 160-9.6 56.96-46.72 99.84-93.44 120.32-45.44 19.84-100.48 19.2-149.12-9.6-54.4-32.64-84.48-96.64-74.88-158.72 8.96-56.32 43.52-97.92 88.32-120.32zM117.76-47.36l6.4-3.2c1.28-0.64 2.56-1.28 3.84-1.28 45.44-18.56 98.56-16.64 145.92 12.8 53.76 33.28 83.2 97.28 72.96 160-9.6 56.96-46.72 99.84-93.44 120.32-45.44 19.84-100.48 19.2-149.12-9.6-54.4-32.64-84.48-96.64-74.88-158.72 8.96-56.32 43.52-98.56 88.32-120.32zM241.92 657.92l6.4-3.2c1.28-0.64 2.56-0.64 3.84-1.28 44.8-18.56 98.56-16.64 145.92 12.8 53.76 33.28 83.2 97.28 72.96 160-9.6 56.96-46.72 99.2-93.44 119.68-45.44 20.48-100.48 19.84-149.12-9.6-54.4-32.64-83.84-96.64-74.24-158.72 8.96-55.68 43.52-97.92 87.68-119.68z" />
<glyph unicode="&#xe909;" glyph-name="star2" d="M512 960l-144-357.12-368-26.88 279.68-261.12-83.84-378.88 316.16 200.96 316.16-200.96-83.2 378.88 279.040 261.12-368 26.88-144 357.12z" />
<glyph unicode="&#xe90a;" glyph-name="user2" d="M512 960c-70.4 0-131.2-24.96-181.12-74.88s-74.88-110.72-74.88-181.12c0-70.4 24.96-131.2 74.88-181.12s110.72-74.88 181.12-74.88c70.4 0 131.2 24.96 181.12 74.88s74.88 110.72 74.88 181.12c0 70.4-24.96 131.2-74.88 181.12s-110.72 74.88-181.12 74.88v0zM512 384c-45.44 0-96.64-5.76-152.96-17.28-56.96-10.88-112.64-26.88-167.040-46.72s-100.48-46.72-136.96-81.28c-36.48-33.92-55.040-71.040-55.040-110.72v-192h1024v192c0 39.68-18.56 76.8-55.040 110.72-36.48 34.56-82.56 61.44-136.96 81.28s-110.080 35.84-167.040 46.72c-56.96 11.52-107.52 17.28-152.96 17.28v0z" />
<glyph unicode="&#xe90b;" glyph-name="folder2-key" d="M384 384c0-35.346-28.654-64-64-64s-64 28.654-64 64c0 35.346 28.654 64 64 64s64-28.654 64-64zM576 704l-128 128h-448v-832h1024v704h-448zM896 320h-64v-128h-128v128h-204.8c-25.6-76.8-96-128-179.2-128-108.8 0-192 83.2-192 192s83.2 192 192 192c83.2 0 153.6-51.2 179.2-128h396.8v-128z" />
<glyph unicode="&#xe90c;" glyph-name="folder-key" d="M416 832l64-102.4 19.2-25.6h460.8v-640h-896v768h352zM448 896h-448v-896h1024v768h-492.8l-83.2 128zM896 480h-396.8c-25.6 76.8-96 128-179.2 128s-192-83.2-192-192 83.2-192 192-192 153.6 51.2 179.2 128h204.8v-128h128v128h64v128zM320 352c-38.4 0-64 25.6-64 64s25.6 64 64 64 64-25.6 64-64-25.6-64-64-64z" />
<glyph unicode="&#xf242;" glyph-name="appstore" d="M832 320v320h64v-512h-320v-128h192v-64h-512.001v64h192v128h-320v512h64v-320h640.001zM192 896h-78.080l-49.279-198.4c3.199-32.639 30.080-57.6 63.359-57.6 35.199 0 64 28.801 64 64v192zM256 960v0-256c0-70.4-57.6-128-128-128s-128 57.6-128 128l64 256h192zM384 896h-128v-192c0-35.199 28.801-64 64-64s64 28.801 64 64v192zM448 960v0-256c0-70.4-57.6-128-128-128s-128 57.6-128 128v256h256zM576 896h-128v-192c0-35.199 28.801-64 64-64s64 28.801 64 64v192zM640 960v0-256c0-70.4-57.6-128-128-128s-128 57.6-128 128v256h256zM768 896h-128v-192c0-35.199 28.801-64 64-64s64 28.801 64 64v192zM832 960v0-256c0-70.4-57.6-128-128-128s-128 57.6-128 128v256h256zM910.080 896h-78.080v-192c0-35.199 28.801-64 64-64 33.279 0 60.16 24.961 64 57.6zM960 960v0l64-256c0-70.4-57.6-128-128-128s-128 57.6-128 128v256h192z" />
<glyph unicode="&#xf243;" glyph-name="archive" d="M1024 896v-256h-64v-640h-896v640h-64v256h1024zM896 64v576h-768v-576h768zM960 704v128h-896v-128h896zM320 448v64h384v-64h-384z" />
<glyph unicode="&#xf244;" glyph-name="bell" d="M512 837.12l-52.48-10.238c-117.76-21.762-203.52-115.201-203.52-222.080v-284.8c0-76.16-33.92-145.279-87.039-192h686.077c-53.119 46.721-87.039 115.84-87.039 192v284.8c0 107.52-85.76 200.958-203.52 222.718zM576 960v0-70.4c145.92-26.879 256-144 256-284.798v-284.8c0-106.24 85.76-192 192-192v0-64h-430.080c5.119-11.52 8.32-24.32 8.32-37.76 0-49.92-40.32-90.24-90.24-90.24s-90.881 40.32-90.881 90.24c0 13.439 3.201 26.24 8.32 37.76h-429.44v64c106.24 0 192 85.76 192 192v284.8c0 140.799 110.080 258.558 256 285.44v69.76h128z" />
<glyph unicode="&#xf245;" glyph-name="bell-blocked" d="M896 64v0l80-80.641-47.359-47.359-128 128h-206.72c5.119-11.52 8.32-24.32 8.32-37.76 0-49.92-40.32-90.24-90.24-90.24s-90.24 40.32-90.881 90.24c0 13.439 3.201 26.24 8.32 37.76h-429.44v64c106.24 0 192 85.76 192 192v285.44c0 20.48 3.199 40.32 7.68 60.16l-199.68 199.68 47.359 47.361 178.561-178.561 48-47.359 558.080-558.72zM594.56 128h142.719l-480.638 481.28c0-1.279-0.641-2.559-0.641-3.84v-285.44c0-76.16-33.92-145.279-87.039-192h425.599zM832 320c0-106.24 85.76-192 192-192v0-64h-33.279l-218.88 218.88c-1.279 12.158-3.84 24.318-3.84 37.119v285.44c0 106.881-85.76 200.32-203.52 222.080l-52.48 9.6-52.48-9.6c-60.799-11.52-112.639-41.6-149.119-83.199l-45.439 45.439c46.078 50.561 110.078 87.041 183.039 100.48v69.76h128v-69.76c145.92-26.881 256-144 256-284.8v-285.44z" />
<glyph unicode="&#xf246;" glyph-name="caddy" d="M384 32c0-53.119-42.881-96-96-96s-96 42.881-96 96 42.881 96 96 96 96-42.881 96-96zM832 32c0-53.119-42.881-96-96-96s-96 42.881-96 96 42.881 96 96 96 96-42.881 96-96zM634.24 448h11.52c29.439 0 46.080 19.199 53.121 28.16l3.199 5.119 53.119 96 124.16 224.64 61.441-33.92-181.121-313.6-0.641-0.641c-21.119-40.32-62.719-68.48-110.719-69.76v0h-310.401l-24.32-37.76-42.24-65.92c-8.959-21.76 14.080-24.32 14.080-24.32h610.56v-64h-611.199c-44.16 0-80 35.84-80 80 0 16 4.479 30.721 12.799 42.881l76.16 119.039-174.721 398.080h-119.039v64h160l196.48-448h277.76z" />
<glyph unicode="&#xf248;" glyph-name="bubble-blocked" d="M896 320c0-43.52-22.4-81.92-55.68-105.6l-613.76 613.76c9.6 2.561 19.199 3.84 29.439 3.84h512c70.4 0 128-57.6 128-128v-384zM976.64-16.641l-48-47.359-256 256h-416.64l-128-128v640c0 10.24 1.279 19.84 3.84 29.439l-131.84 131.84 47.359 47.361 710.4-710.4z" />
<glyph unicode="&#xf249;" glyph-name="vcard" d="M192 544c0 85.333 42.667 128 128 128s128-42.667 128-128c0-85.333-42.667-128-128-128s-128 42.667-128 128zM320 384c53.334 0 98.667-9.333 136-28s56-41.333 56-68v-32h-384v32c0 26.667 18.667 49.333 56 68s82.667 28 136 28zM576 512v64h320v-64h-320zM576 384v64h320v-64h-320zM896 832c34.667 0 64.667-12.667 90-38s38-55.333 38-90v-512c0-34.667-12.667-64.667-38-90s-55.333-38-90-38h-768c-34.667 0-64.667 12.667-90 38s-38 55.333-38 90v512c0 34.667 12.667 64.667 38 90s55.333 38 90 38h768zM960 192v512c0 17.333-6.333 32.333-19 45s-27.667 19-45 19h-768c-17.333 0-32.333-6.333-45-19s-19-27.667-19-45v-512c0-17.333 6.333-32.333 19-45s27.667-19 45-19h768c17.333 0 32.333 6.333 45 19s19 27.667 19 45z" />
<glyph unicode="&#xf24a;" glyph-name="bin" d="M896 704.64h-64v-768.64h-640v768.64h-64v191.359h192l63.359 64h256l64-64h192.641v-191.359zM768 0v704h-512v-704h128v575.36h64v-575.36h128v575.36h64v-575.36h128zM192 768.64h640v63.359h-154.881l-64 64h-202.878l-64-64h-154.24v-63.359z" />
<glyph unicode="&#xf24b;" glyph-name="file" d="M704 960l256-256v-768h-896v1024h640zM704 869.12v-165.119h165.76zM896 0v640h-256v256h-512v-896h768z" />
<glyph unicode="&#xf24c;" glyph-name="pencil" d="M320 0h704v-64h-704v64zM0 117.12v-181.12h181.12l842.88 842.88-181.12 181.12-842.88-842.88zM64 90.24l657.92 657.92 90.24-90.24-657.92-657.92-90.24 90.24zM933.76 778.88l-76.16-75.52-90.24 90.24 75.52 75.52 90.88-90.24z" />
<glyph unicode="&#xf24e;" glyph-name="form" d="M128 576v128h128v-128h-128zM320 640v64h512v-64h-512zM128 384v128h128v-128h-128zM320 448v64h512v-64h-512zM128 192v128h128v-128h-128zM320 256v64h512v-64h-512zM960 832h-896v-768h896v768zM1024 896v0-896h-1024v896h1024z" />
<glyph unicode="&#xf24f;" glyph-name="users" d="M686.72 448c-14.080 0-30.080-1.279-46.721-2.561 57.6-39.68 92.801-108.799 94.721-183.68v-133.76h289.28v133.119c0 124.16-225.28 186.881-337.28 186.881zM320 448c106.24 0 320-62.721 320-186.881v-133.119h-640v133.119c0 124.801 213.76 186.881 320 186.881zM320 384c-96.641 0-256-57.6-256-122.881v-69.119h512v69.119c0 65.281-159.359 122.881-256 122.881zM829.44 665.6c-9.6 49.92-49.92 90.24-99.84 99.84-81.92 16-153.6-46.080-153.6-125.439-0.641-70.4 56.32-127.359 126.721-128h1.279c78.721 0 141.439 71.68 125.439 153.6zM445.44 665.6c16-81.92-46.719-153.6-125.439-153.6h-1.279c-70.4 0.641-127.361 57.6-126.721 128 0 79.359 71.68 141.439 153.6 125.439 49.92-9.6 90.24-49.92 99.84-99.84zM320 576c39.68 0 70.4 35.84 62.721 76.801-5.121 24.959-24.961 44.799-49.92 49.92-40.961 7.68-76.801-23.041-76.801-62.721 0-35.199 28.16-64 64-64v0z" />
<glyph unicode="&#xf250;" glyph-name="info" d="M448 768h128v-128h-128v128zM576 128h-128v384h128v-384zM512 960c282.88 0 512-229.12 512-512s-229.12-512-512-512-512 229.12-512 512 229.12 512 512 512zM512 0c247.68 0 448 200.32 448 448s-200.32 448-448 448-448-200.32-448-448 200.32-448 448-448z" />
<glyph unicode="&#xf251;" glyph-name="stethoscope" d="M976 512c0-59.52-40.961-109.439-96-124.16v-186.879c0-77.441-32.641-151.041-89.6-201.602-47.361-41.6-106.24-63.359-167.041-63.359-15.359 0-31.359 1.279-47.359 3.84-119.039 22.4-208.64 138.881-208.64 272v144c-37.119 8.32-69.119 30.080-91.52 59.52v0l-192.641 252.16c-21.76 27.52-35.199 62.721-35.199 100.48 0 83.199 63.359 151.039 144.641 159.359 10.879 19.201 31.359 32.641 55.039 32.641 35.201 0 64-28.801 64-64 0-1.92-0.641-3.84-0.641-5.76-1.92-23.68-16.639-43.52-37.76-52.48-7.68-3.84-16.639-5.76-25.6-5.76-23.039 0-42.879 12.16-54.4 30.721-46.080-7.041-81.279-46.721-81.279-94.721 0-26.881 15.359-53.119 31.359-73.6l64.641-86.4 40.961-54.4 71.68-95.359c17.279-25.6 46.719-42.24 79.359-42.24h1.92c32.641 0 62.080 16.641 78.721 41.6l0.639 0.641 112.641 149.76 64 86.4c16 20.48 31.359 46.719 31.359 73.6 0 48-35.199 87.68-81.279 94.721-10.881-18.561-31.359-30.721-54.4-30.721-8.959 0-17.92 1.92-25.6 5.76-20.48 8.961-35.199 28.801-37.76 52.48 0 1.92-0.641 3.84-0.641 5.76 0 35.199 28.801 64 64 64 24.32 0 44.801-13.439 55.68-32 81.281-8.32 144.641-76.16 144.641-159.359 0-38.4-12.801-72.961-35.199-100.48v0l-192.641-252.16c-23.041-30.080-56.32-51.84-94.721-60.16v-144c0-101.119 67.201-189.439 156.16-206.080 12.16-1.92 23.68-3.199 35.84-3.199 46.721 0 90.881 16.639 126.080 48 42.881 37.76 67.201 92.799 67.201 150.4v186.879c-55.68 14.080-96.641 64.641-96.641 124.16 0 70.4 57.6 128 128 128s128-57.6 128-128z" />
<glyph unicode="&#xf252;" glyph-name="key" d="M704 960c176.641 0 320-143.359 320-320s-143.359-320-320-320c-28.16 0-55.039 3.84-80.641 10.881l-138.879-138.881h-100.481v-128h-128v-128h-256v228.481l394.88 394.878c-7.041 25.602-10.881 52.48-10.881 80.641 0 176.641 143.359 320 320 320zM704 384c141.439 0 256 114.561 256 256s-114.561 256-256 256-256-114.561-256-256c0-8.961 0.641-17.92 1.279-26.881 0.641-7.039 1.92-14.719 3.201-21.76l1.92-8.32 3.84-12.799 2.561-9.6 4.479-12.16 2.561-6.4-403.84-403.84v-138.24h128v128h128v128h138.24l99.84 99.199 48 48 30.721-10.238 8.318-1.281 13.441-3.199 7.039-1.281c12.16-1.92 24.961-3.199 38.4-3.199zM466.56 544.64l1.279-3.201zM466.56 544.64l-1.281 3.84 2.561-7.041zM672 688c0 53.333 26.667 80 80 80s80-26.667 80-80-26.667-80-80-80-80 26.667-80 80z" />
<glyph unicode="&#xf253;" glyph-name="clip" d="M280.96-64c-42.24 0-83.842 8.961-121.602 27.52-84.479 40.961-141.439 114.561-156.16 200.96-14.080 86.4 16 174.719 81.281 236.16l526.080 497.92c65.279 62.080 163.84 79.359 238.718 42.879 60.16-28.799 100.48-80.639 110.721-142.080 10.24-60.799-11.52-123.52-57.6-167.039l-144.641-136.961c-23.039-21.76-69.119-65.279-83.84-79.359l-243.2-229.76c-40.961-39.041-104.32-46.080-151.041-17.279-30.080 18.559-49.279 48.639-53.119 81.92-2.561 33.92 10.24 67.199 35.199 91.52l475.52 449.92 48-45.439-475.52-449.92c-10.879-10.24-16.641-24.961-14.721-39.682 1.281-14.719 9.602-26.879 23.041-35.199 19.199-12.16 47.359-8.32 65.92 8.959l243.2 229.762c55.041 52.479 83.201 79.359 99.842 92.16l-1.281 1.279 129.92 122.879c30.721 29.441 45.439 71.041 38.4 111.361-7.039 40.959-33.92 75.52-74.24 94.719-49.92 24.961-115.84 12.16-160.641-30.080l-526.080-497.92c-49.92-47.359-73.6-115.199-62.719-181.119 10.879-65.92 54.4-122.24 119.68-154.24 81.279-39.039 187.52-19.84 259.2 48l527.362 498.56 47.359-45.439-527.36-498.56c-59.521-56.32-138.24-86.4-215.68-86.4z" />
<glyph unicode="&#xf254;" glyph-name="lock" d="M320 704v-256h-128v-448h640v448h-512v256zM512 960v0c140.801 0 256-115.199 256-256v-192h64c35.199 0 64-28.801 64-64v-448c0-35.199-28.801-64-64-64h-640c-35.199 0-64 28.801-64 64v448c0 35.199 28.801 64 64 64h64v192c0 140.801 115.199 256 256 256zM384 512v0h256v192c0 70.4-57.6 128-128 128s-128-57.6-128-128v-192zM448 64v256h128v-256h-128z" />
<glyph unicode="&#xf255;" glyph-name="user" d="M512 896c-53.76 0-97.92-18.561-135.68-56.32s-56.32-81.92-56.32-135.68 18.561-97.92 56.32-135.68 81.92-56.32 135.68-56.32 97.92 18.561 135.68 56.32 56.32 81.92 56.32 135.68-18.561 97.92-56.32 135.68-81.92 56.32-135.68 56.32zM512 960v0c70.4 0 131.199-24.961 181.119-74.881s74.881-110.719 74.881-181.119-24.961-131.199-74.881-181.119-110.719-74.881-181.119-74.881-131.199 24.961-181.119 74.881-74.881 110.719-74.881 181.119 24.961 131.199 74.881 181.119 110.719 74.881 181.119 74.881zM512 320c-40.961 0-88.32-5.119-140.801-16-53.119-10.24-106.238-25.6-157.439-44.16-46.080-17.279-85.119-39.68-115.199-67.84-34.561-32-34.561-56.32-34.561-64v-128h896v128c0 7.68 0 32-35.199 64-30.080 28.16-69.121 50.561-115.201 67.84-51.199 18.561-104.32 33.279-157.439 44.16-51.84 10.881-99.199 16-140.16 16zM512 384v0c45.439 0 96-5.76 152.961-17.279 56.959-10.881 112.639-26.881 167.039-46.721s100.48-46.721 136.961-81.279c36.479-33.92 55.039-71.041 55.039-110.721v-192h-1024v192c0 39.68 18.561 76.801 55.039 110.721 36.48 34.559 82.561 61.439 136.961 81.279s110.080 35.84 167.039 46.721c56.32 11.52 107.521 17.279 152.961 17.279z" />
<glyph unicode="&#xf256;" glyph-name="portal" d="M960 896h-896v-128h896v128zM1024 960v0-256h-1024v256h1024zM960 576h-192v-192h192v192zM1024 640v0-320h-320v320h320zM960 192h-192v-192h192v192zM1024 256v0-320h-320v320h320zM576 576h-512v-576h512v576zM640 640v0-704h-640v704h640z" />
<glyph unicode="&#xf257;" glyph-name="printer" d="M768 832h-512v-192h512v192zM832 896v-320h-640v320h640zM896 576h-768c-35.199 0-64-28.801-64-64v-256h128v256h640v-256h128v256c0 35.199-28.801 64-64 64zM896 640c70.4 0 128-57.6 128-128v-320h-256v256h-512v-256h-256v320c0 70.4 57.6 128 128 128h768zM768 448h-512v-384h512v384zM832 512v-512h-640v512h640z" />
<glyph unicode="&#xf258;" glyph-name="key2" d="M704 960c176.641 0 320-143.359 320-320s-143.359-320-320-320c-28.16 0-55.039 3.84-80.641 10.881l-138.879-138.881h-100.481v-128h-128v-128h-256v228.481l394.88 394.878c-7.041 25.602-10.881 52.48-10.881 80.641 0 176.641 143.359 320 320 320zM752 608c44.16 0 80 35.84 80 80s-35.84 80-80 80-80-35.84-80-80 35.84-80 80-80z" />
<glyph unicode="&#xf259;" glyph-name="file-text" d="M320 448v64h384v-64h-384zM320 320v64h384v-64h-384zM320 192v64h256v-64h-256zM704 960l256-256v-768h-896v1024h640zM704 869.12v-165.119h165.76zM896 0v640h-256v256h-512v-896h768z" />
<glyph unicode="&#xf25a;" glyph-name="eye" d="M1016.96 464.64l7.039-16.641-7.039-16.641c-55.682-123.52-167.682-222.718-307.842-270.718-64-22.4-130.559-32.641-195.84-32.641-216.318 0-421.76 115.199-506.24 303.36l-7.039 16.641 7.039 16.641c82.561 184.32 280.96 303.36 504.96 303.36s422.4-119.039 504.96-303.36zM511.36 202.24c142.080 0 256.64 110.080 256.64 245.76s-114.561 245.76-256.64 245.76-256.638-110.080-256.638-245.76 115.199-245.76 256.638-245.76zM640 448c0-67.84-57.6-122.881-128-122.881-71.039 0-128 55.041-128 122.881s57.6 122.881 128 122.881 128-55.041 128-122.881z" />
<glyph unicode="&#xf25b;" glyph-name="share" d="M864 256c88.32 0 160-71.68 160-160s-71.68-160-160-160-160 71.68-160 160c0 12.801 1.92 24.961 5.119 37.119l-424.318 215.682c-29.441-36.48-74.24-60.801-124.801-60.801-88.32 0-160 71.68-160 160s71.68 160 160 160c51.199 0 96-24.32 125.439-61.439l424.32 212.478c-3.199 12.801-5.76 26.881-5.76 40.961 0 88.32 71.68 160 160 160s160-71.68 160-160-71.68-160-160-160c-51.199 0-96 24.32-124.801 61.439l-424.958-212.478c3.199-12.801 5.76-26.881 5.76-40.961 0-14.721-2.561-28.801-6.4-42.24l422.4-214.4c29.439 39.041 75.52 64.641 128 64.641z" />
<glyph unicode="&#xf25c;" glyph-name="file-network" d="M0-64v64h1024v-64h-1024zM512-64v256h64v-256h-64zM576 960l256-256v-512h-576v768h320zM576 869.12v-165.119h165.76zM768 256v384h-256v256h-192v-640h448z" />
<glyph unicode="&#xf25d;" glyph-name="star" d="M512 960l144-357.12 368-26.881-278.4-261.12 83.201-378.88-316.8 200.96-316.16-200.96 83.84 378.88-279.68 261.12 368 26.881zM342.4 300.8l-51.201-227.84 220.801 140.158 34.561-23.039 186.24-118.4-50.561 228.48-7.68 35.84 26.879 24.961 172.16 161.279-262.4 19.84-14.719 37.119-84.48 209.282-85.119-209.282-14.721-37.119-39.68-3.199-222.080-16 199.68-186.24z" />
<glyph unicode="&#xf25e;" glyph-name="file-template" d="M256 448v64h128v-64h-128zM448 448v64h128v-64h-128zM640 448v64h128v-64h-128zM576 896v64h128v-64h-128zM640 640v64h320v-64h-320zM192 896v64h128v-64h-128zM384 896v64h128v-64h-128zM256-64v64h128v-64h-128zM64-64v64h128v-64h-128zM448-64v64h128v-64h-128zM640-64v64h128v-64h-128zM832-64v64h128v-64h-128zM256 320v64h128v-64h-128zM448 320v64h128v-64h-128zM640 320v64h128v-64h-128zM256 192v64h128v-64h-128zM448 192v64h128v-64h-128zM64 832v128h64v-128h-64zM64 640v128h64v-128h-64zM64 448v128h64v-128h-64zM64 256v128h64v-128h-64zM64 64v128h64v-128h-64zM896 512v128h64v-128h-64zM640 704v192h64v-192h-64zM896 320v128h64v-128h-64zM896 128v128h64v-128h-64zM896-64v128h64v-128h-64zM704 960l256-256h-90.24l-165.76 165.119v90.881z" />
<glyph unicode="&#xf25f;" glyph-name="triangle-down" d="M480 320l-224 256h448z" />
<glyph unicode="&#xf260;" glyph-name="triangle-right" d="M640 448l-256-224v448z" />
<glyph unicode="&#xf261;" glyph-name="unlock" d="M256 64v256h128v-256h-128zM704 896c140.801 0 256-115.199 256-256v-128h-128v128c0 70.4-57.6 128-128 128s-128-57.6-128-128v-128c35.199 0 64-28.801 64-64v-448c0-35.199-28.801-64-64-64h-512c-35.199 0-64 28.801-64 64v448c0 35.199 28.801 64 64 64h384v128c0 140.801 115.199 256 256 256zM576 0v448h-512v-448h512z" />
<glyph unicode="&#xf262;" glyph-name="bubble-text" d="M192 640v64h640v-64h-640zM192 512v64h640v-64h-640zM192 384v64h384v-64h-384zM960 896h-896v-805.76l101.76 101.76h794.24v704zM960 960v0c35.199 0 64-28.801 64-64v-704c0-35.199-28.801-64-64-64h-768l-192-192v960c0 35.199 28.801 64 64 64h896z" />
<glyph unicode="&#xf263;" glyph-name="history" d="M719.36 266.88l-44.799-44.801-226.56 225.92v320h64v-293.76zM512 960c282.88 0 512-229.12 512-512s-229.12-512-512-512-512 229.12-512 512h64c0-247.040 200.96-448 448-448s448 200.96 448 448-200.96 448-448 448c-123.52 0-234.88-50.561-316.16-131.84l156.16-156.16h-352v352l151.039-151.039c92.801 92.799 219.522 151.039 360.96 151.039z" />
<glyph unicode="&#xf264;" glyph-name="workflow" d="M192 960c106.24 0 192-86.4 192-192.641s-85.76-192.639-192-192.639-192 86.398-192 192.639 85.76 192.641 192 192.641zM192 896c-70.4 0-128-57.6-128-128s57.6-128 128-128 128 57.6 128 128-57.6 128-128 128zM896 385.28h-704v-256.638h262.4l-58.24 58.24 44.801 45.439 130.559-129.92 5.121-5.76-135.68-136.32-45.441 45.439 58.881 58.24h-326.4v385.28h704v256.64h-262.4l58.24-58.881-44.801-44.799-135.68 135.68 135.041 136.32 45.439-45.439-58.24-58.881h326.4v-384.64zM832 320.64c106.24 0 192-85.76 192-192.641 0-106.24-85.76-192.641-192-192.641s-192 86.4-192 192.641 85.76 192.641 192 192.641zM832 256.641c-70.4 0-128-57.602-128-128 0-70.4 57.6-128 128-128s128 57.6 128 128c0 70.398-57.6 128-128 128z" />
<glyph unicode="&#xf265;" glyph-name="stack-blocked" d="M210.56 638.72l70.4 39.68 182.398-182.4zM512 893.44l451.2-254.718-350.080-197.121-53.76 53.76 254.080 143.361-301.44 170.24-170.24-96-53.76 53.76zM872.96 307.84l90.238-51.199-105.6-59.521-65.279 65.281zM872.96 498.56l90.238-50.561-227.84-128.641-65.279 65.281zM47.359 912.64v0l929.282-929.282-47.361-47.359-193.279 193.279-224-126.719-451.2 254.080 90.238 51.199 360.96-203.52 159.359 89.6-56.959 56.961-102.4-57.602-451.2 254.72 90.238 50.561 360.96-203.522 37.119 21.121-108.158 108.16-380.16 214.4 105.6 60.16-166.4 166.398zM247.040 618.24v0l-26.238 26.24-10.24-5.76z" />
</font>
</defs>
</svg>
